[ Сегодня на трекере фрилич! Идет свободное скачивание без начисления Download ]

Тотем волка / Wolf Totem (Жан-Жак Анно) [2015, приключения, BDRip 1080p][Студия Пиратского Дубляжа]

 

Создавать темы 31-Май-2015 10:27

Тотем волка / Wolf Totem--

  • Год выпуска: 2015
  • Страна: Китай, Франция
  • Жанр: приключения
  • Продолжительность: 02:01:17
  • Перевод: Профессиональный двухголосый [Студия Пиратского Дубляжа]
  • Субтитры: Английские
  • В ролях: Уилльям Фэн, Шон До, Ба Сэнь Чжа Бу, Анкхньям Рачаа, Yin Zhushen, Baoyingexige
  • Режиссёр: Жан-Жак Анно

    В 1967 году молодой пекинский студент Чэнь Чжэнь отправляется жить среди кочевых пастухов Внутренней Монголии. Оказавшись зажатыми между прогрессом цивилизации с юга и мародерством волков на севере, люди и животные борются, чтобы найти свое место в мире.--
  • Качество: BDRip 1080p
  • Формат: MKV
  • Видео кодек: AVC
  • Аудио кодек: AC3
  • Видео: AVC, 1920x856, 15.0 Мбит/сек, 24.000 кадр/сек
  • Аудио: АС3, 384 Кбит/сек, 2 канала(ов), 48,0 КГц - Русский
  • Аудио: АС3, 640 Кбит/сек, 6 канала(ов), 48,0 КГц - Китайский
-

MediaInfo:

General
Unique ID                   : 242199646089900998669411943301114820728 (0xB635F480F062D27DB38FF0B872A0F878)
Complete name               : C:\Users\feedback\Desktop\Wolf Totem. (2015) BDRip 1080p.mkv
Format                      : Matroska
Format version              : Version 2
File size                   : 13.6 GiB
Duration                    : 2h 1mn
Overall bit rate            : 16.0 Mbps
Movie name                  : Wolf Totem. 2015
Encoded date                : UTC 2015-05-21 12:53:45
Writing application         : mkvmerge v5.8.0 ('No Sleep / Pillow') built on Sep  2 2012 15:37:04
Writing library             : libebml v1.2.3 + libmatroska v1.3.0
Video
ID                          : 1
Format                      : AVC
Format/Info                 : Advanced Video Codec
Format profile              : [email protected]
Format settings, CABAC      : Yes
Format settings, ReFrames   : 5 frames
Codec ID                    : V_MPEG4/ISO/AVC
Duration                    : 2h 1mn
Bit rate                    : 15.0 Mbps
Width                       : 1 920 pixels
Height                      : 856 pixels
Display aspect ratio        : 2.25:1
Frame rate mode             : Constant
Frame rate                  : 24.000 fps
Color space                 : YUV
Chroma subsampling          : 4:2:0
Bit depth                   : 8 bits
Scan type                   : Progressive
Bits/(Pixel*Frame)          : 0.381
Stream size                 : 12.4 GiB (92%)
Title                       : WiKi
Writing library             : x264 core 129 r2245 bc13772
Encoding settings           : cabac=1 / ref=5 / deblock=1:-3:-3 / analyse=0x3:0x133 / me=umh / subme=11 / psy=1 / psy_rd=1.05:0.10 / mixed_ref=1 / me_range=64 / chroma_me=1 / trellis=2 / 8x8dct=1 / cqm=0 / deadzone=21,11 / fast_pskip=0 / chroma_qp_offset=-3 / threads=12 / lookahead_threads=2 / sliced_threads=0 / nr=0 / decimate=1 / interlaced=0 / bluray_compat=0 / constrained_intra=0 / bframes=8 / b_pyramid=2 / b_adapt=2 / b_bias=0 / direct=3 / weightb=1 / open_gop=0 / weightp=2 / keyint=250 / keyint_min=24 / scenecut=40 / intra_refresh=0 / rc_lookahead=60 / rc=2pass / mbtree=0 / bitrate=15012 / ratetol=1.0 / qcomp=0.70 / qpmin=0 / qpmax=69 / qpstep=4 / cplxblur=20.0 / qblur=0.5 / vbv_maxrate=40000 / vbv_bufsize=30000 / nal_hrd=none / ip_ratio=1.40 / pb_ratio=1.30 / aq=1:0.75
Language                    : English
Default                     : Yes
Forced                      : No
Audio #1
ID                          : 2
Format                      : AC-3
Format/Info                 : Audio Coding 3
Mode extension              : CM (complete main)
Format settings, Endianness : Big
Codec ID                    : A_AC3
Duration                    : 2h 1mn
Bit rate mode               : Constant
Bit rate                    : 384 Kbps
Channel(s)                  : 2 channels
Channel positions           : Front: L R
Sampling rate               : 48.0 KHz
Bit depth                   : 16 bits
Compression mode            : Lossy
Stream size                 : 333 MiB (2%)
Title                       : L2 | Студия Пиратского Дубляжа
Language                    : Russian
Default                     : Yes
Forced                      : No
Audio #2
ID                          : 3
Format                      : AC-3
Format/Info                 : Audio Coding 3
Mode extension              : CM (complete main)
Format settings, Endianness : Big
Codec ID                    : A_AC3
Duration                    : 2h 1mn
Bit rate mode               : Constant
Bit rate                    : 640 Kbps
Channel(s)                  : 6 channels
Channel positions           : Front: L C R, Side: L R, LFE
Sampling rate               : 48.0 KHz
Bit depth                   : 16 bits
Compression mode            : Lossy
Stream size                 : 555 MiB (4%)
Title                       : Original
Language                    : Chinese
Default                     : No
Forced                      : No
Text
ID                          : 4
Format                      : UTF-8
Codec ID                    : S_TEXT/UTF8
Codec ID/Info               : UTF-8 Plain Text
Title                       : Full
Language                    : English
Default                     : No
Forced                      : No
Menu
00:00:00.000                : en:Chapter 01
00:10:32.208                : en:Chapter 02
00:21:21.166                : en:Chapter 03
00:30:42.083                : en:Chapter 04
00:40:14.625                : en:Chapter 05
00:50:00.750                : en:Chapter 06
01:01:04.208                : en:Chapter 07
01:10:47.291                : en:Chapter 08
01:22:00.875                : en:Chapter 09
01:29:28.875                : en:Chapter 10
01:40:39.166                : en:Chapter 11
01:50:56.666                : en:Chapter 12

Скриншоты:

Яндекс.Метрика
Рейтинг@Mail.ru