Кат Бэнк / Cut Bank (Мэтт Шекман) [2014, Триллер, BDRip 1080p][ColdFilm]

 

Создавать темы 31-Май-2015 10:24

Кат Бэнк / Cut Bank--

  • Год выпуска: 2014
  • Страна: США
  • Жанр: Триллер
  • Продолжительность: 01:33:18
  • Перевод: Любительский двухголосый [ColdFilm]
  • Субтитры: Финские, шведские
  • В ролях: Билли Боб Торнтон, Лиам Хемсворт, Тереза Палмер, Джон Малкович, Майкл Стулбарг, Брюс Дерн, Оливер Плэтт, Соня Саломяа, Эйден Лонгуорт, Пейтон Кеннеди
  • Режиссёр: Мэтт Шекман

    Дуэйн МакЛарен живет в городе Кат Бэнк, штат Монтана, работает в автомастерской, но в школе был звездой футбола. Поскольку городок буквально застрял во времени, Дуэйну очень хочется вырваться из него. Он предпринимает все возможное, чтобы покинуть Кат Бэнк, тем самым запуская череду событий, которые изменят не только его жизнь, но и сам город.--
  • Качество: BDRip 1080p
  • Формат: MKV
  • Видео кодек: AVC
  • Аудио кодек: AC3, DTS
  • Видео: AVC, 1920x792, 10.7 Мбит/сек, 23.976 кадр/сек
  • Аудио: АС3, 192 Кбит/сек, 2 канала(ов), 48,0 КГц - Русский
  • Аудио: DTS, 1509 Кбит/сек, 6 канала(ов), 48,0 КГц - Французский
-

MediaInfo:

General
Unique ID                   : 218470732855688606692789555431862128402 (0xA45BEEC15B7D5EEBB6AA345767AF4F12)
Complete name               : C:\Users\feedback\Desktop\Cut.Bank.2015.BDRip.1080p.mkv
Format                      : Matroska
Format version              : Version 2
File size                   : 8.26 GiB
Duration                    : 1h 33mn
Overall bit rate            : 12.7 Mbps
Movie name                  : RARBG.COM - Cut.Bank.2014.1080p.BluRay.x264.DTS-RARBG
Encoded date                : UTC 2015-05-23 19:34:04
Writing application         : mkvmerge v7.9.0 ('Birds') 64bit
Writing library             : libebml v1.3.1 + libmatroska v1.4.2
DURATION                    : 01:33:08.512000000
NUMBER_OF_FRAMES            : 174641
NUMBER_OF_BYTES             : 134124288
_STATISTICS_WRITING_APP     : mkvmerge v7.9.0 ('Birds') 64bit
_STATISTICS_WRITING_DATE_UT : 2015-05-23 19:34:04
_STATISTICS_TAGS            : BPS DURATION NUMBER_OF_FRAMES NUMBER_OF_BYTES
Video
ID                          : 1
Format                      : AVC
Format/Info                 : Advanced Video Codec
Format profile              : [email protected]
Format settings, CABAC      : Yes
Format settings, ReFrames   : 4 frames
Codec ID                    : V_MPEG4/ISO/AVC
Duration                    : 1h 33mn
Bit rate                    : 10.7 Mbps
Nominal bit rate            : 11.5 Mbps
Width                       : 1 920 pixels
Height                      : 798 pixels
Display aspect ratio        : 2.40:1
Frame rate mode             : Constant
Frame rate                  : 23.976 fps
Color space                 : YUV
Chroma subsampling          : 4:2:0
Bit depth                   : 8 bits
Scan type                   : Progressive
Bits/(Pixel*Frame)          : 0.292
Stream size                 : 6.99 GiB (85%)
Title                       : Cut.Bank.2014.1080p.BluRay.x264.DTS-RARBG
Writing library             : x264 core 144 r2525M 40bb568
Encoding settings           : cabac=1 / ref=4 / deblock=1:0:0 / analyse=0x3:0x113 / me=umh / subme=7 / psy=1 / psy_rd=1.00:0.15 / mixed_ref=1 / me_range=16 / chroma_me=1 / trellis=1 / 8x8dct=1 / cqm=0 / deadzone=21,11 / fast_pskip=1 / chroma_qp_offset=-3 / threads=40 / lookahead_threads=8 / sliced_threads=0 / nr=0 / decimate=1 / interlaced=0 / bluray_compat=0 / constrained_intra=0 / bframes=3 / b_pyramid=2 / b_adapt=2 / b_bias=0 / direct=3 / weightb=1 / open_gop=0 / weightp=2 / keyint=250 / keyint_min=25 / scenecut=40 / intra_refresh=0 / rc_lookahead=50 / rc=abr / mbtree=1 / bitrate=11500 / ratetol=1.0 / qcomp=0.60 / qpmin=0 / qpmax=69 / qpstep=4 / ip_ratio=1.40 / aq=1:1.00
Language                    : English
Default                     : Yes
Forced                      : No
Audio #1
ID                          : 2
Format                      : AC-3
Format/Info                 : Audio Coding 3
Mode extension              : CM (complete main)
Format settings, Endianness : Big
Codec ID                    : A_AC3
Duration                    : 1h 33mn
Bit rate mode               : Constant
Bit rate                    : 192 Kbps
Channel(s)                  : 2 channels
Channel positions           : Front: L R
Sampling rate               : 48.0 KHz
Bit depth                   : 16 bits
Compression mode            : Lossy
Stream size                 : 128 MiB (2%)
Language                    : Russian
Default                     : Yes
Forced                      : No
Audio #2
ID                          : 3
Format                      : DTS
Format/Info                 : Digital Theater Systems
Mode                        : 16
Format settings, Endianness : Big
Codec ID                    : A_DTS
Duration                    : 1h 33mn
Bit rate mode               : Constant
Bit rate                    : 1 509 Kbps
Channel(s)                  : 6 channels
Channel positions           : Front: L C R, Side: L R, LFE
Sampling rate               : 48.0 KHz
Bit depth                   : 24 bits
Compression mode            : Lossy
Stream size                 : 1 005 MiB (12%)
Title                       : Cut.Bank.2014.1080p.BluRay.x264.DTS-RARBG
Language                    : English
Default                     : No
Forced                      : No
Menu
00:00:00.000                : en:Chapter 01
00:04:53.960                : en:Chapter 02
00:10:38.512                : en:Chapter 03
00:17:14.950                : en:Chapter 04
00:26:14.197                : en:Chapter 05
00:33:51.237                : en:Chapter 06
00:40:53.742                : en:Chapter 07
00:46:32.331                : en:Chapter 08
00:52:17.259                : en:Chapter 09
00:58:42.435                : en:Chapter 10
01:04:48.634                : en:Chapter 11
01:11:22.152                : en:Chapter 12
01:16:18.448                : en:Chapter 13
01:21:03.441                : en:Chapter 14
01:24:35.487                : en:Chapter 15
01:28:14.372                : en:Chapter 16

Скриншоты:

Яндекс.Метрика
Рейтинг@Mail.ru