Зимняя спячка / Kis uykusu (Нури Бильге Джейлан) [2014, драма, BDRip 1080p] MVO [Кинопоказ]

 

Создавать темы 31-Май-2015 10:22

Зимняя спячка / Kis uykusu--

  • Год выпуска: 2014
  • Страна: Турция, Франция, Германия
  • Жанр: драма
  • Продолжительность: 03:16:45
  • Перевод: Профессиональный многоголосый [Кинопоказ]
  • Субтитры: Английские
  • В ролях: Халук Бильгинер, Мелиса Сёзен, Демет Акбаг, Айберк Пекджан, Серхат Кылыч, Неджат Ишлер, Тэмер Левент, Надир Сарыбаджак, Эмирхан Доруктутан, Экрем Ильхан
  • Режиссёр: Нури Бильге Джейлан

    Отель «Отелло» в Анатолии. Им управляет импозантный седовласый Айдин, бывший театральный актер, чья слава давно прошла. Вместе с ним живут красавица-жена, занимающаяся благотворительностью, и сестра, тоскующая по мужу, с которым не так давно развелась. Небывалый снегопад отрезает отель от цивилизации, и он становится убежищем для этих трех человек и декорацией, в которой разыгрываются сцены их мучений.--
  • Качество: BDRip 1080p
  • Формат: MKV
  • Видео кодек: AVC
  • Аудио кодек: AC3
  • Видео: AVC, 1920x804, 11.5 Мбит/сек, 23.976 кадр/сек
  • Аудио: АС3, 192 Кбит/сек, 2 канала(ов), 48,0 КГц - Русский
  • Аудио: АС3, 640 Кбит/сек, 6 канала(ов), 48,0 КГц - Турецкий
-

MediaInfo:

General
Unique ID                   : 196689674223377658990203567936679806931 (0x93F90DA749A4FD689E881933F66D87D3)
Complete name               : C:\Users\feedback\Desktop\Зимняя.спячка.2014.BDRip.1080p.mkv
Format                      : Matroska
Format version              : Version 4 / Version 2
File size                   : 16.9 GiB
Duration                    : 3h 16mn
Overall bit rate            : 12.3 Mbps
Encoded date                : UTC 2015-05-23 01:34:04
Writing application         : mkvmerge v6.1.0 ('Old Devil') built on Mar  4 2013 09:10:42
Writing library             : libebml v1.3.0 + libmatroska v1.4.0
Video
ID                          : 1
Format                      : AVC
Format/Info                 : Advanced Video Codec
Format profile              : [email protected]
Format settings, CABAC      : Yes
Format settings, ReFrames   : 4 frames
Codec ID                    : V_MPEG4/ISO/AVC
Duration                    : 3h 16mn
Bit rate                    : 11.5 Mbps
Width                       : 1 920 pixels
Height                      : 804 pixels
Display aspect ratio        : 2.40:1
Frame rate mode             : Constant
Frame rate                  : 23.976 fps
Color space                 : YUV
Chroma subsampling          : 4:2:0
Bit depth                   : 8 bits
Scan type                   : Progressive
Bits/(Pixel*Frame)          : 0.311
Stream size                 : 15.5 GiB (91%)
Writing library             : x264 core 142 r2431 ac76440
Encoding settings           : cabac=1 / ref=4 / deblock=1:-3:-3 / analyse=0x3:0x113 / me=umh / subme=11 / psy=1 / psy_rd=1.05:0.10 / mixed_ref=1 / me_range=48 / chroma_me=1 / trellis=2 / 8x8dct=1 / cqm=0 / deadzone=21,11 / fast_pskip=0 / chroma_qp_offset=-2 / threads=6 / lookahead_threads=1 / sliced_threads=0 / nr=0 / decimate=1 / interlaced=0 / bluray_compat=0 / constrained_intra=0 / bframes=6 / b_pyramid=2 / b_adapt=2 / b_bias=0 / direct=3 / weightb=1 / open_gop=0 / weightp=2 / keyint=250 / keyint_min=23 / scenecut=40 / intra_refresh=0 / rc_lookahead=40 / rc=2pass / mbtree=0 / bitrate=11500 / ratetol=2.0 / qcomp=0.70 / qpmin=0 / qpmax=69 / qpstep=4 / cplxblur=20.0 / qblur=0.5 / vbv_maxrate=40000 / vbv_bufsize=30000 / nal_hrd=none / filler=0 / ip_ratio=1.40 / pb_ratio=1.30 / aq=2:1.00
Language                    : English
Default                     : Yes
Forced                      : No
Audio #1
ID                          : 2
Format                      : AC-3
Format/Info                 : Audio Coding 3
Mode extension              : CM (complete main)
Format settings, Endianness : Big
Codec ID                    : A_AC3
Duration                    : 3h 16mn
Bit rate mode               : Constant
Bit rate                    : 192 Kbps
Channel(s)                  : 2 channels
Channel positions           : Front: L R
Sampling rate               : 48.0 KHz
Bit depth                   : 16 bits
Compression mode            : Lossy
Stream size                 : 270 MiB (2%)
Title                       : Профессиональный многоголосый [Кинопоказ]
Language                    : Russian
Default                     : Yes
Forced                      : Yes
Audio #2
ID                          : 3
Format                      : AC-3
Format/Info                 : Audio Coding 3
Mode extension              : CM (complete main)
Format settings, Endianness : Big
Codec ID                    : A_AC3
Duration                    : 3h 16mn
Bit rate mode               : Constant
Bit rate                    : 640 Kbps
Channel(s)                  : 6 channels
Channel positions           : Front: L C R, Side: L R, LFE
Sampling rate               : 48.0 KHz
Bit depth                   : 16 bits
Compression mode            : Lossy
Stream size                 : 901 MiB (5%)
Title                       : Оригинал
Language                    : Turkmen
Default                     : No
Forced                      : No
Text
ID                          : 4
Format                      : UTF-8
Codec ID                    : S_TEXT/UTF8
Codec ID/Info               : UTF-8 Plain Text
Language                    : English
Default                     : No
Forced                      : No
Menu
00:00:00.000                : en:00:00:00.000
00:05:43.583                : en:00:05:43.583
00:11:04.583                : en:00:11:04.583
00:15:27.958                : en:00:15:27.958
00:21:14.833                : en:00:21:14.833
00:27:39.458                : en:00:27:39.458
00:32:27.208                : en:00:32:27.208
00:39:23.792                : en:00:39:23.792
00:44:27.667                : en:00:44:27.667
00:49:57.167                : en:00:49:57.167
00:55:10.000                : en:00:55:10.000
01:02:05.917                : en:01:02:05.917
01:05:37.958                : en:01:05:37.958
01:13:29.917                : en:01:13:29.917
01:19:04.833                : en:01:19:04.833
01:23:56.333                : en:01:23:56.333
01:29:00.000                : en:01:29:00.000
01:33:42.792                : en:01:33:42.792
01:38:41.583                : en:01:38:41.583
01:44:28.625                : en:01:44:28.625
01:49:13.208                : en:01:49:13.208
01:54:02.250                : en:01:54:02.250
02:00:42.125                : en:02:00:42.125
02:05:12.333                : en:02:05:12.333
02:11:48.000                : en:02:11:48.000
02:17:23.708                : en:02:17:23.708
02:23:23.125                : en:02:23:23.125
02:27:46.333                : en:02:27:46.333
02:33:54.792                : en:02:33:54.792
02:36:28.625                : en:02:36:28.625
02:43:02.000                : en:02:43:02.000
02:49:58.208                : en:02:49:58.208
02:54:35.625                : en:02:54:35.625
03:03:25.792                : en:03:03:25.792
03:06:31.083                : en:03:06:31.083
03:13:32.417                : en:03:13:32.417

Скриншоты:

Яндекс.Метрика
Рейтинг@Mail.ru