Белый Бог / Feher isten (Корнел Мундруцо) [2014, драма, BDRip 720p][официальный]

 

Создавать темы 31-Май-2015 10:07

Белый Бог / Feher isten--

  • Год выпуска: 2014
  • Страна: Венгрия, Германия, Швеция
  • Жанр: драма
  • Продолжительность: 01:56:02
  • Перевод: Профессиональный многоголосый [официальный]
  • Субтитры: Норвежские, шведские , финские , датские
  • В ролях: Жофия Псотта, Шандор Жотер, Лили Хорват, Сабольч Туроци, Лили Монори, Гергей Банки, Тамаш Полгар, Карой Ашер, Эрика Боднар
  • Режиссёр: Корнел Мундруцо

    Главная героиня после отъезда матери в Австралию осталась с отцом, а отец не рад ее собаке Хагену. К тому же, пес не поставлен на учет, и за ним начинает охоту санитарная инспекция. Сбежав от хозяйки, Хаген переживает серию передряг, а потом оказывается в собачьем приюте, где поднимает восстание против бесчеловечности тех, кто там работает.--
  • Качество: BDRip 720p
  • Формат: MKV
  • Видео кодек: AVC
  • Аудио кодек: AC3
  • Видео: AVC, 1280x536, 4567 Кбит/сек, 24.000 кадр/сек
  • Аудио: АС3, 192 Кбит/сек, 2 канала(ов), 48,0 КГц - Русский
  • Аудио: АС3, 640 Кбит/сек, 6 канала(ов), 48,0 КГц - Венгерский
--

MediaInfo:

General
Unique ID                   : 239097842174774264991752242273713871427 (0xB3E091C36E1CE9448FB938EA4CDB5A43)
Complete name               : C:\Users\feedback\Desktop\beLYj.b0g.2014.BDRip.720p.mkv
Format                      : Matroska
Format version              : Version 2
File size                   : 4.57 GiB
Duration                    : 2h 0mn
Overall bit rate            : 5 411 Kbps
Encoded date                : UTC 2015-05-23 22:29:57
Writing application         : mkvmerge v7.9.0 ('Birds') 64bit
Writing library             : libebml v1.3.1 + libmatroska v1.4.2
_STATISTICS_WRITING_APP     : mkvmerge v7.9.0 ('Birds') 64bit
_STATISTICS_WRITING_DATE_UT : 2015-05-23 22:29:57
_STATISTICS_TAGS            : BPS DURATION NUMBER_OF_FRAMES NUMBER_OF_BYTES
DURATION                    : 01:54:14.250000000
NUMBER_OF_FRAMES            : 689
NUMBER_OF_BYTES             : 3191840
Video
ID                          : 1
Format                      : AVC
Format/Info                 : Advanced Video Codec
Format profile              : [email protected]
Format settings, CABAC      : Yes
Format settings, ReFrames   : 4 frames
Codec ID                    : V_MPEG4/ISO/AVC
Duration                    : 2h 0mn
Bit rate                    : 4 567 Kbps
Width                       : 1 280 pixels
Height                      : 536 pixels
Display aspect ratio        : 2.40:1
Frame rate mode             : Constant
Frame rate                  : 24.000 fps
Color space                 : YUV
Chroma subsampling          : 4:2:0
Bit depth                   : 8 bits
Scan type                   : Progressive
Bits/(Pixel*Frame)          : 0.277
Stream size                 : 3.77 GiB (83%)
Writing library             : x264 core 146 r2538 121396c
Encoding settings           : cabac=1 / ref=4 / deblock=1:0:0 / analyse=0x3:0x3 / me=dia / subme=1 / psy=1 / psy_rd=1.00:0.00 / mixed_ref=0 / me_range=16 / chroma_me=1 / trellis=0 / 8x8dct=1 / cqm=0 / deadzone=21,11 / fast_pskip=1 / chroma_qp_offset=-2 / threads=18 / lookahead_threads=3 / sliced_threads=0 / nr=0 / decimate=1 / interlaced=0 / bluray_compat=0 / constrained_intra=0 / bframes=1 / b_pyramid=0 / b_adapt=1 / b_bias=0 / direct=1 / weightb=1 / open_gop=0 / weightp=1 / keyint=240 / keyint_min=24 / scenecut=40 / intra_refresh=0 / rc_lookahead=0 / rc=2pass / mbtree=0 / bitrate=4567 / ratetol=1.0 / qcomp=0.60 / qpmin=0 / qpmax=69 / qpstep=4 / cplxblur=20.0 / qblur=0.5 / vbv_maxrate=20000 / vbv_bufsize=20000 / nal_hrd=none / filler=0 / ip_ratio=1.40 / pb_ratio=1.30 / aq=2:1.00
Default                     : Yes
Forced                      : No
Audio #1
ID                          : 2
Format                      : AC-3
Format/Info                 : Audio Coding 3
Mode extension              : CM (complete main)
Format settings, Endianness : Big
Codec ID                    : A_AC3
Duration                    : 2h 0mn
Bit rate mode               : Constant
Bit rate                    : 192 Kbps
Channel(s)                  : 2 channels
Channel positions           : Front: L R
Sampling rate               : 48.0 KHz
Bit depth                   : 16 bits
Compression mode            : Lossy
Delay relative to video     : 700ms
Stream size                 : 166 MiB (4%)
Language                    : Russian
Default                     : Yes
Forced                      : No
Audio #2
ID                          : 3
Format                      : AC-3
Format/Info                 : Audio Coding 3
Mode extension              : CM (complete main)
Format settings, Endianness : Big
Codec ID                    : A_AC3
Duration                    : 2h 0mn
Bit rate mode               : Constant
Bit rate                    : 640 Kbps
Channel(s)                  : 6 channels
Channel positions           : Front: L C R, Side: L R, LFE
Sampling rate               : 48.0 KHz
Bit depth                   : 16 bits
Compression mode            : Lossy
Stream size                 : 553 MiB (12%)
Default                     : No
Forced                      : No
Text #1
ID                          : 4
Format                      : PGS
Muxing mode                 : zlib
Codec ID                    : S_HDMV/PGS
Codec ID/Info               : The same subtitle format used on BDs/HD-DVDs
Language                    : Norwegian
Default                     : No
Forced                      : No
Text #2
ID                          : 5
Format                      : PGS
Muxing mode                 : zlib
Codec ID                    : S_HDMV/PGS
Codec ID/Info               : The same subtitle format used on BDs/HD-DVDs
Language                    : Swedish
Default                     : No
Forced                      : No
Text #3
ID                          : 6
Format                      : PGS
Muxing mode                 : zlib
Codec ID                    : S_HDMV/PGS
Codec ID/Info               : The same subtitle format used on BDs/HD-DVDs
Language                    : Finnish
Default                     : No
Forced                      : No
Text #4
ID                          : 7
Format                      : PGS
Muxing mode                 : zlib
Codec ID                    : S_HDMV/PGS
Codec ID/Info               : The same subtitle format used on BDs/HD-DVDs
Language                    : Danish
Default                     : No
Forced                      : No
Menu
00:00:00.000                : :Chapter 1
00:06:15.541                : :Chapter 2
00:16:31.500                : :Chapter 3
00:22:34.375                : :Chapter 4
00:28:38.208                : :Chapter 5
00:35:37.541                : :Chapter 6
00:42:55.833                : :Chapter 7
00:50:33.958                : :Chapter 8
00:58:14.666                : :Chapter 9
01:05:13.791                : :Chapter 10
01:14:07.458                : :Chapter 11
01:21:59.416                : :Chapter 12
01:29:01.375                : :Chapter 13
01:37:57.125                : :Chapter 14
01:47:09.458                : :Chapter 15
01:55:33.416                : :Chapter 16

Скриншоты:

Яндекс.Метрика
Рейтинг@Mail.ru