Дорога на Берлин (2015) BDRip 720p | Лицензия

 

Создавать темы 30-Май-2015 21:13

Дорога на БерлинГод выпуска: 2015
Жанр: Военный, драма
Выпущено: Россия, Мосфильм, Продюсерская компания Александра Литвинова
Режиссер: Сергей Попов
В ролях:
Юрий Борисов, Амир Абдыкалыков, Мария Карпова, Максим Демченко, Александр Новик, Артем Лебедев, Андрей Дерюгин
О фильме:
Действие фильма происходит в Великую Отечественную войну. Главные герои - лейтенант Огарков и рядовой Джурабаев - молодые люди, выходцы из разных союзных республик, разные по характеру и жизненным позициям, но объединенные общей целью. В основе фильма лежат их сложные отношения и поступки, продиктованные фоном страшных событий войны. Это история о человеческих взаимоотношениях, истинных нравственных ценностях, долге перед Родиной, близкими и самим собой.
Файл
Качество: BDRip 720p
Видео: MPEG-4 AVC, 10500 Кбит/с, 1920х1032
Аудио: Русский (DTS, 6 ch, 1510 Кбит/с), (AC3, 6 ch, 640 Кбит/с)
Размер: 4.89 ГБ
Продолжительность: 01:25:48
Язык: Русский

MI

Общее
Уникальный идентификатор                 : 180025065357027193568570078419548196504 (0x876F910051FC9885ABDB49C95AC94E98)
Полное имя                               : D:Doroga.Na.Berlin.2014.O.2015.BDRip.720p.by.bog3417.mkv
Формат                                   : Matroska
Версия формата                           : Version 2
Размер файла                             : 4,89 Гбайт
Продолжительность                        : 1 ч. 25 м.
Общий поток                              : 8150 Кбит/сек
Название фильма                          : Doroga.Na.Berlin.2014.O.2015.BDRip.720p.by.bog3417
Дата кодирования                         : UTC 2015-05-30 12:08:35
Программа кодирования                    : mkvmerge v7.9.0 ('Birds') 64bit
Библиотека кодирования                   : libebml v1.3.1 + libmatroska v1.4.2
_STATISTICS_WRITING_APP                  : mkvmerge v7.9.0 ('Birds') 64bit
_STATISTICS_WRITING_DATE_UTC             : 2015-05-30 12:08:35
_STATISTICS_TAGS                         : BPS DURATION NUMBER_OF_FRAMES NUMBER_OF_BYTES
DURATION                                 : 01:25:48.960000000
NUMBER_OF_FRAMES                         : 160905
NUMBER_OF_BYTES                          : 411916800
Видео
Идентификатор                            : 1
Формат                                   : AVC
Формат/Информация                        : Advanced Video Codec
Профиль формата                          : [email protected]
Параметр CABAC формата                   : Да
Параметр ReFrames формата                : 9 кадров
Идентификатор кодека                     : V_MPEG4/ISO/AVC
Продолжительность                        : 1 ч. 25 м.
Битрейт                                  : 6000 Кбит/сек
Ширина                                   : 1280 пикселей
Высота                                   : 688 пикселей
Соотношение сторон                       : 1,85:1
Режим частоты кадров                     : Постоянный
Частота кадров                           : 23,976 кадра/сек
Цветовое пространство                    : YUV
Субдискретизация насыщенности            : 4:2:0
Битовая глубина                          : 8 бит
Тип развёртки                            : Прогрессивная
Бит/(Пиксели*Кадры)                      : 0.284
Размер потока                            : 3,50 Гбайт (72%)
Заголовок                                : Doroga.Na.Berlin.2014.O.2015.BDRip.720p.by.bog3417
Библиотека кодирования                   : x264 core 146 r2538 121396c
Настройки программы                      : cabac=1 / ref=9 / deblock=1:-3:-3 / analyse=0x3:0x33 / me=umh / subme=11 / psy=1 / psy_rd=1.05:0.10 / mixed_ref=1 / me_range=32 / chroma_me=1 / trellis=2 / 8x8dct=1 / cqm=0 / deadzone=21,11 / fast_pskip=0 / chroma_qp_offset=-3 / threads=12 / lookahead_threads=2 / sliced_threads=0 / nr=0 / decimate=0 / interlaced=0 / bluray_compat=0 / constrained_intra=0 / bframes=9 / b_pyramid=2 / b_adapt=2 / b_bias=0 / direct=3 / weightb=1 / open_gop=0 / weightp=2 / keyint=240 / keyint_min=23 / scenecut=40 / intra_refresh=0 / rc_lookahead=60 / rc=2pass / mbtree=1 / bitrate=6000 / ratetol=1.0 / qcomp=0.60 / qpmin=0 / qpmax=69 / qpstep=4 / cplxblur=20.0 / qblur=0.5 / ip_ratio=1.40 / aq=3:0.90
Язык                                     : English
Default                                  : Да
Forced                                   : Нет
DURATION                                 : 01:25:48.894000000
NUMBER_OF_FRAMES                         : 123450
NUMBER_OF_BYTES                          : 3860888561
_STATISTICS_WRITING_APP                  : mkvmerge v7.9.0 ('Birds') 64bit
_STATISTICS_WRITING_DATE_UTC             : 2015-05-30 12:08:35
_STATISTICS_TAGS                         : BPS DURATION NUMBER_OF_FRAMES NUMBER_OF_BYTES
Аудио #1
Идентификатор                            : 2
Формат                                   : DTS
Формат/Информация                        : Digital Theater Systems
Режим                                    : 16
Параметр Endianness формата              : Big
Идентификатор кодека                     : A_DTS
Продолжительность                        : 1 ч. 25 м.
Вид битрейта                             : Постоянный
Битрейт                                  : 1509 Кбит/сек
Каналы                                   : 6 каналов
Расположение каналов                     : Front: L C R, Side: L R, LFE
Частота                                  : 48,0 КГц
Битовая глубина                          : 24 бит
Метод сжатия                             : С потерями
Размер потока                            : 926 Мбайт (19%)
Язык                                     : Russian
Default                                  : Да
Forced                                   : Нет
Аудио #2
Идентификатор                            : 3
Формат                                   : AC-3
Формат/Информация                        : Audio Coding 3
Расширение режима                        : CM (complete main)
Параметр Endianness формата              : Big
Идентификатор кодека                     : A_AC3
Продолжительность                        : 1 ч. 25 м.
Вид битрейта                             : Постоянный
Битрейт                                  : 640 Кбит/сек
Каналы                                   : 6 каналов
Расположение каналов                     : Front: L C R, Side: L R, LFE
Частота                                  : 48,0 КГц
Метод сжатия                             : С потерями
Размер потока                            : 393 Мбайт (8%)
Язык                                     : Russian
Default                                  : Нет
Forced                                   : Нет
Меню
00:00:00.000                             : en:00:00:00.000
00:05:18.693                             : en:00:05:18.693
00:13:21.759                             : en:00:13:21.759
00:24:10.407                             : en:00:24:10.407
00:35:08.898                             : en:00:35:08.898
00:41:55.554                             : en:00:41:55.554
00:49:10.280                             : en:00:49:10.280
00:54:30.725                             : en:00:54:30.725
01:00:59.739                             : en:01:00:59.739
01:07:18.993                             : en:01:07:18.993
01:13:33.367                             : en:01:13:33.367
01:21:17.998                             : en:01:21:17.998

Скриншоты:

Яндекс.Метрика
Рейтинг@Mail.ru