Смертельно опасные ошибки / BBC Horizon: How to Avoid Mistakes in Surgery (2013)[ документальный HDTVRip] от R.G.RealMT | P2

 

Создавать темы 05-Дек-2013 15:53

Год выпуска: 2013
Страна: Великобритания
Студия: BBC
Жанр: документальный
Продолжительность: 00:46:48
Перевод: Профессиональный (двухголосый закадровый) - студия «Марафон»
Режиссер: Дэвид Стюарт / David Stewart
Описание: За последние десятилетия наука и технологии совершили революцию в мире хирургии. Операции на сердце стали практически обычным делом. Но если случается непредвиденное, то слабым звеном в операционной, как правило, являются не лекарства и оборудование, а врачи и медсестры. Всё потому, что в экстремальных условиях никто не застрахован от ошибок. В критические моменты мозг дает сбой. Возникает вопрос: можно ли что-то сделать, чтобы в момент катастрофы оставался шанс спасти ситуацию? Это вопрос жизни и смерти.
В программе доктор Кевин Фонг (Kevin Fong) рассказывает, как наш мозг справляется со стрессом в экстремальных ситуациях и что делает нейробиология, чтобы предотвратить ошибки тех, от кого зависят жизни людей.
Качество: HDTVRip
Формат:AVI
Видео кодек: XviD
Аудио кодек: AC-3
Видео: 16:9, 2000 Кбит/сек, 720x400, 25,000 кадров/сек
Аудио: AC-3, 2 канала, 128 Кбит/сек, 48,0 КГц

MediaInfo

Общее
Полное имя : D:BBC.Horizon.2013.How.to.Avoid.Mistakes.in.Surgery.HDTV.[R.G.RealMT].avi
Формат : AVI
Формат/Информация : Audio Video Interleave
Размер файла : 716 Мбайт
Продолжительность : 46 м.
Общий поток : 2138 Кбит/сек
Программа кодирования : VirtualDubMod 1.5.10.3 | www.virtualdub-fr.org || (build 2550/release)
Библиотека кодирования : VirtualDubMod build 2550/release
Видео
Идентификатор : 0
Формат : MPEG-4 Visual
Профиль формата : Advanced [email protected]
Параметр BVOP формата : 2
Параметр QPel формата : Нет
Параметр GMC формата : Без точки перехода
Параметр матрицы формата : Default (H.263)
Режим смешивания : Сжатый битовый поток
Идентификатор кодека : XVID
Идентификатор кодека/Подсказка : XviD
Продолжительность : 46 м.
Битрейт : 2000 Кбит/сек
Ширина : 720 пикселей
Высота : 400 пикселей
Соотношение сторон : 16:9
Частота кадров : 25,000 кадров/сек
Цветовое пространство : YUV
Субдискретизация насыщенности : 4:2:0
Битовая глубина : 8 бит
Тип развёртки : Прогрессивная
Метод сжатия : С потерями
Бит/(Пиксели*Кадры) : 0.278
Размер потока : 669 Мбайт (94%)
Библиотека кодирования : XviD 1.2.1 (UTC 2008-12-04)
Аудио
Идентификатор : 1
Формат : AC-3
Формат/Информация : Audio Coding 3
Расширение режима : CM (complete main)
Параметр Endianness формата : Big
Идентификатор кодека : 2000
Продолжительность : 46 м.
Вид битрейта : Постоянный
Битрейт : 128 Кбит/сек
Каналы : 2 канала
Расположение каналов : Front: L R
Частота : 48,0 КГц
Битовая глубина : 16 бит
Метод сжатия : С потерями
Размер потока : 42,8 Мбайт (6%)
Выравнивание : Разделение по промежуткам
Продолжительность промежутка : 40 мс. (1,00 видеокадр)
Время предзагрузки промежутка : 500 мс.

Скриншоты

Яндекс.Метрика
Рейтинг@Mail.ru