NG: Тайны вокруг нас / Mystery 360 [выпуски 1-2 из...] (Кристофер Лоффт) [2009 г., Документальный, научно-познавательный, HDTVRip]

 

Создавать темы 05-Дек-2013 06:55

NG: Тайны вокруг нас / Mystery 360 [выпуски 1-2 из...]
Год выпуска: 2009 г.
Страна: США, National Geographic Channel, BASE Productions
Жанр: Документальный, научно-познавательный
Продолжительность: 2x~00:45:06
Перевод: Одноголосый закадровый - студия АРТ-ТВ, текст читал Игорь Тарадайкин, Радик Мухаметзянов
Cубтитры: нет
Режиссер: Кристофер Лоффт
Описание: Программа рассказывает о паранормальныех явлениях, которые нас окружают и увидите ученный исследовавших эти паранормальные явления, а также увидите, как они доказывают что факт, а что вымысел.
Список выпусков:
01. Призраки за решеткой / Ghosts behind bars
Тюрьма Истерн Стейт, штат Филадельфия. Это одно из мест в Америке, откуда чаще всего поступают сообщения о встречах с призраками. Некоторые утверждают что видели призраков в коридорах Истерн Стейт и имеют доказательства, что они в самом деле населяют тюрьму, однако скептики говорят, что призраков, с научной точки зрения , не существует. Сможет ли наука объяснить все эти жуткие истории? В этом беспрецедентном расследование, при помощи физики, техники и научных технологий, мы проанализируем случаи столкновения с призраками, что бы понять, что можно считать наукой, а что научной фантастикой.
02. Снежный человек / Bigfoot revealed
Одна из величайших тайн современности - снежный человек. Есть ли подтверждение его существованию ? Некое существо оставляет следы, его замечают люди, но еще ни разу небыли обнаружены его кости. Этот фильм - беспрецедентное расследование исследование, в ходе которого мы рассмотрим свидетельства с точки зрения науки и технологий и воссоздадим снежного человека используя передовые разработки компьютерной анимации. Мы установим, что из этого факт, а что лишь выдумка.
Качество: HDTVRip
Формат видео: AVI
Видео кодек: XviD
Аудио кодек: AC3
Видео: 720x400 25.00fps 1950 Kbps
Аудио: AC3 2ch, 48kHz, 192 kbps (AC3 6ch, 48kHz, 192 kbps 2 серия)

Скриншоты

MediaInfo:

Формат : AVI
Формат/Информация : Audio Video Interleave
Размер файла : 694 Мбайт
Продолжительность : 45 м.
Общий поток : 2152 Кбит/сек
Программа кодирования : VirtualDubMod 1.5.10.3 | www.virtualdub-fr.org || (build 2550/release)
Библиотека кодирования : VirtualDubMod build 2550/release
Видео
Идентификатор : 0
Формат : MPEG-4 Visual
Профиль формата : Advanced [email protected]
Параметр BVOP формата : 2
Параметр QPel формата : Нет
Параметр GMC формата : Без точки перехода
Параметр матрицы формата : Default (H.263)
Идентификатор кодека : XVID
Идентификатор кодека/Подсказка : XviD
Продолжительность : 45 м.
Битрейт : 1950 Кбит/сек
Ширина : 720 пикселей
Высота : 400 пикселей
Соотношение сторон : 16:9
Частота кадров : 25,000 кадров/сек
Цветовое пространство : YUV
Субдискретизация насыщенности : 4:2:0
Битовая глубина : 8 бит
Тип развёртки : Прогрессивная
Метод сжатия : С потерями
Бит/(Пиксели*Кадры) : 0.271
Размер потока : 629 Мбайт (91%)
Библиотека кодирования : XviD 1.2.1 (UTC 2008-12-04)
Аудио
Идентификатор : 1
Формат : AC-3
Формат/Информация : Audio Coding 3
Расширение режима : CM (complete main)
Параметр Endianness формата : Big
Идентификатор кодека : 2000
Продолжительность : 45 м.
Вид битрейта : Постоянный
Битрейт : 192 Кбит/сек
Каналы : 2 канала
Расположение каналов : Front: L R
Частота : 48,0 КГц
Битовая глубина : 16 бит
Метод сжатия : С потерями
Размер потока : 61,9 Мбайт (9%)
Выравнивание : Разделение по промежуткам
Продолжительность промежутка : 40 мс. (1,00 видеокадр)
Время предзагрузки промежутка : 500 мс.

Внимание! Раздача ведётся путём добавления новых выпусков

Внимание! Раздача ведётся путём добавления новых выпусков; при каждом добавлении создаётся новый торрент. Чтобы начать докачку нового выпуска, пользователям необходимо сделать следующее:
(1) остановить скачивание,
(2) удалить старый торрент у себя из клиента (старые серии удалять не надо),
(3) скачать новый торрент и запустить его у себя в клиенте вместо старого, при этом указать клиенту путь в старую папку куда и должно происходить скачивание новых выпусков.
Ваш клиент при этом должен произвести хеширование (проверку) старой папки (если не производит сам - помогите ему сделать это). В результате он будет докачивать только те выпуски, которых у Вас ещё нет. Старые выпуски при этом не удаляются, а продолжают раздаваться!
Eсли Вы уже удалили старые выпуски, то предотвратить их повторную закачку можно, сняв галочки в соответствующих местах при запуске нового торрента. По возможности, желательно не удалять старые выпуски как можно дольше, чтобы релизёр не только продолжал раздавать старые выпуски, но и смог сконцентрироваться на новых.
Яндекс.Метрика
Рейтинг@Mail.ru