[ Сегодня на трекере фрилич! Идет свободное скачивание без начисления Download ]

(Rock,Hard Rock) Deep Purple - Live In Denmark (Japan) (Remaster 2002) (2CD) - 1972 [FLAC, image+.cue, lossless]

 

Создавать темы 27-Май-2015 16:47

-Deep Purple / Live In Denmark (Japan) (Remaster 2002) (2CD)-- Год издания: 1972
Страна: UK
Жанр: Rock,Hard Rock
Продолжительность: 01:37:33-Лейбл издания: Manufactured and Distributed by VAP INC
Тип альбома: Live
Страна-выпуска диска: Japan
Номер по каталогу: VPCK - 85317 Mono
Формат: FLAC
Битрейт аудио: lossless
Тип рипа: image+.cue
Наличие сканов в содержимом раздачи: да
---

Трэклист

CD 1 || 00:45:27

01.Highway Star (08:31)
02.Strange Kind of Woman (10:11)
03.Child in Time (17:30)
04.The Mule (09:16)

CD 2 || 00:52:07

01.Lazy (11:57)
02.Space Truckin' (23:49)
03.Fireball (04:08)
04.Lucille (05:55)
05.Black Night (06:20)
--

Лог создания рипа

CD 1

Exact Audio Copy V1.0 beta 3 from 29. August 2011
Отчёт EAC об извлечении, выполненном 28. ноября 2014, 20:03
Deep Purple / Live In Denmark '72 (CD1)
Дисковод: hp      DVD-RAM SW830   Adapter: 0  ID: 0
Режим чтения                 : Достоверность
Использование точного потока : Да
Отключение кэша аудио        : Да
Использование указателей C2  : Нет
Коррекция смещения при чтении                     : 6
Способность читать области Lead-in и Lead-out     : Нет
Заполнение пропущенных сэмплов тишиной            : Да
Удаление блоков с тишиной в начале и конце        : Нет
При вычислениях CRC использовались нулевые сэмплы : Да
Интерфейс                                         : Встроенный Win32-интерфейс для Win NT/2000
Выходной формат          : Пользовательский кодировщик
Выбранный битрейт        : 896 kBit/s
Качество                 : Высокий
Добавление ID3-тега      : Нет
Утилита сжатия           : C:\Program Files (x86)\Exact Audio Copy\Flac\flac.exe
Дополнительные параметры : -V -8 %source%
TOC извлечённого CD
     Трек |   Старт  | Длительность | Начальный сектор | Конечный сектор
    ---------------------------------------------------------------------
       1  |  0:00.00 |    8:30.34   |           0      |      38283
       2  |  8:30.34 |   10:10.56   |       38284      |      84089
       3  | 18:41.15 |   17:29.49   |       84090      |     162813
       4  | 36:10.64 |    9:15.28   |      162814      |     204466
Характеристики диапазона извлечения и сообщения об ошибках
Выбранный диапазон
     Имя файла F:\torrent.ru\Deep Purple\Deep Purple - Live In Denmark '72 (CD1).wav
     Пиковый уровень 98.8 %
     Скорость извлечения 6.9 X
     Качество диапазона 100.0 %
     CRC теста 934FC190
     CRC копии 934FC190
     Копирование... OK
Ошибок не произошло
AccurateRip: сводка
Трек  1  точность не определена (достоверность 14)  [A93A8961], AccurateRip вернул [DFEA0F0D]  (AR v2)
Трек  2  точность не определена (достоверность 14)  [9EE41248], AccurateRip вернул [DED5DA8D]  (AR v2)
Трек  3  точность не определена (достоверность 14)  [87DD4496], AccurateRip вернул [4F1A4604]  (AR v2)
Трек  4  точность не определена (достоверность 14)  [826FFBC5], AccurateRip вернул [88A6F273]  (AR v2)
Ни один трек не прошёл проверки на точность
В вашей базе может быть иной вариант штамповки диска
Конец отчёта

CD 2

Exact Audio Copy V1.0 beta 3 from 29. August 2011
Отчёт EAC об извлечении, выполненном 28. ноября 2014, 20:31
Deep Purple / Live In Denmark '72 (CD2)
Дисковод: hp      DVD-RAM SW830   Adapter: 0  ID: 0
Режим чтения                 : Достоверность
Использование точного потока : Да
Отключение кэша аудио        : Да
Использование указателей C2  : Нет
Коррекция смещения при чтении                     : 6
Способность читать области Lead-in и Lead-out     : Нет
Заполнение пропущенных сэмплов тишиной            : Да
Удаление блоков с тишиной в начале и конце        : Нет
При вычислениях CRC использовались нулевые сэмплы : Да
Интерфейс                                         : Встроенный Win32-интерфейс для Win NT/2000
Выходной формат          : Пользовательский кодировщик
Выбранный битрейт        : 896 kBit/s
Качество                 : Высокий
Добавление ID3-тега      : Нет
Утилита сжатия           : C:\Program Files (x86)\Exact Audio Copy\Flac\flac.exe
Дополнительные параметры : -V -8 %source%
TOC извлечённого CD
     Трек |   Старт  | Длительность | Начальный сектор | Конечный сектор
    ---------------------------------------------------------------------
       1  |  0:00.00 |   11:56.24   |           0      |      53723
       2  | 11:56.24 |   23:48.70   |       53724      |     160893
       3  | 35:45.19 |    4:07.17   |      160894      |     179435
       4  | 39:52.36 |    5:54.10   |      179436      |     205995
       5  | 45:46.46 |    6:19.56   |      205996      |     234476
Характеристики диапазона извлечения и сообщения об ошибках
Выбранный диапазон
     Имя файла F:\torrent.ru\Deep Purple\Deep Purple - Live In Denmark '72 (CD2).wav
     Пиковый уровень 96.7 %
     Скорость извлечения 4.4 X
     Качество диапазона 100.0 %
     CRC теста 91FECBC6
     CRC копии 91FECBC6
     Копирование... OK
Ошибок не произошло
AccurateRip: сводка
Трек  1  точность не определена (достоверность 14)  [A49B4A15], AccurateRip вернул [3CECAB8F]  (AR v2)
Трек  2  точность не определена (достоверность 14)  [8B52E54A], AccurateRip вернул [BC9A1641]  (AR v2)
Трек  3  точность не определена (достоверность 14)  [D6BA50D2], AccurateRip вернул [40E56FB8]  (AR v2)
Трек  4  точность не определена (достоверность 13)  [9EB05E33], AccurateRip вернул [5D79A763]  (AR v2)
Трек  5  точность не определена (достоверность 13)  [055CCFA1], AccurateRip вернул [D922D769]  (AR v2)
Ни один трек не прошёл проверки на точность
В вашей базе может быть иной вариант штамповки диска
Конец отчёта

Индексная карта (non-compilant .cue)

CD 1

REM GENRE Rock
REM DATE 2004
REM DISCID 1D0AA604
REM COMMENT "ExactAudioCopy v1.0b3"
PERFORMER "Deep Purple"
TITLE "Live In Denmark '72 (CD1)"
FILE "Deep Purple - Live In Denmark '72 (CD1).FLAC" WAVE
  TRACK 01 AUDIO
    TITLE "Highway Star"
    PERFORMER "Deep Purple"
    INDEX 01 00:00:00
  TRACK 02 AUDIO
    TITLE "Strange Kind of Woman"
    PERFORMER "Deep Purple"
    INDEX 00 07:43:12
    INDEX 01 08:30:34
  TRACK 03 AUDIO
    TITLE "Child in Time"
    PERFORMER "Deep Purple"
    INDEX 00 17:42:26
    INDEX 01 18:41:15
  TRACK 04 AUDIO
    TITLE "The Mule"
    PERFORMER "Deep Purple"
    INDEX 00 35:34:59
    INDEX 01 36:10:64

CD 2

REM GENRE Rock
REM DATE 2004
REM DISCID 470C3605
REM COMMENT "ExactAudioCopy v1.0b3"
PERFORMER "Deep Purple"
TITLE "Live In Denmark '72 (CD2)"
FILE "Deep Purple - Live In Denmark '72 (CD2).FLAC" WAVE
  TRACK 01 AUDIO
    TITLE "Lazy"
    PERFORMER "Deep Purple"
    INDEX 01 00:00:00
  TRACK 02 AUDIO
    TITLE "Space Truckin'"
    PERFORMER "Deep Purple"
    INDEX 00 11:33:41
    INDEX 01 11:56:24
  TRACK 03 AUDIO
    TITLE "Fireball"
    PERFORMER "Deep Purple"
    INDEX 00 33:52:20
    INDEX 01 35:45:19
  TRACK 04 AUDIO
    TITLE "Lucille"
    PERFORMER "Deep Purple"
    INDEX 01 39:52:36
  TRACK 05 AUDIO
    TITLE "Black Night"
    PERFORMER "Deep Purple"
    INDEX 00 45:24:32
    INDEX 01 45:46:46

Лог Audiochecker

CD 1

AUDIOCHECKER v2.0 beta (build 457) - by Dester - [email protected]
~~~~~~~~~~~~~~~~~~~~~~~~~~~~~~~~~~
Started at: среда, 27. 05. 2015. - 17:20.34
1 file found
1 -===- D:\Torrent files\Deep Purple - Live In Denmark (Japan)\CD1\Deep Purple - Live In Denmark '72 (CD1).FLAC
  Extracted successfully
  Conclusion: this track is CDDA with probability 99%
  Tempfile successfully deleted.
Finished at: среда, 27. 05. 2015. - 17:22.38 (operation time: 0:02.03)

CD 2

AUDIOCHECKER v2.0 beta (build 457) - by Dester - [email protected]
~~~~~~~~~~~~~~~~~~~~~~~~~~~~~~~~~~
Started at: среда, 27. 05. 2015. - 17:22.52
1 file found
1 -===- D:\Torrent files\Deep Purple - Live In Denmark (Japan)\CD2\Deep Purple - Live In Denmark '72 (CD2).FLAC
  Extracted successfully
  Conclusion: this track is CDDA with probability 100%
  Tempfile successfully deleted.
Finished at: среда, 27. 05. 2015. - 17:25.14 (operation time: 0:02.22)
--Не забываем говорить
Яндекс.Метрика
Рейтинг@Mail.ru