Пэн: Путешествие в Нетландию / Pan (2015 ,фэнтези, приключения, семейный) WEBRip 1080p | Трейлер

 

Создавать темы 27-Май-2015 14:46

-Пэн: Путешествие в Нетландию / Pan (2015)-Год выпуска: 2015
Производство: США
Жанр: фэнтези, приключения, семейный
Перевод: Дублированный--Режиссер: Джо Райт
Продюсеры: Грег Берланти, Сара Шечтер, Пол Уэбстер
Актеры: Кара Делевинь, Руни Мара, Хью Джекман, Гаррет Хедлунд, Аманда Сайфред, Пол Кэй, Леви Миллер, Нонсо Анози, Эмиральд Феннел, Джимми Ви--Описание трейлера:
Второй официальный русский трейлер фильма Пэн: Путешествие в Нетландию 2015 (дублированный)--Описание фильма:
История о сироте, который попал в волшебную Нетландию, где его поджидали опасные приключения. Там он понял, что его судьба — стать героем, который навсегда останется известен под именем Питер Пэн.--Дата мировой премьеры: 8 октября 2015
Дата российской премьеры: 8 октября 2015-- --Продолжительность: 00:02:27
Качество видео: WEBRip--Видеокодек: MPEG-4 AVC/H.264
Битрейт видео: 2748 Кбит/сек
Размер кадра: 1920x796
Аудиокодек: AC3 2.0
Битрейт аудио: 254 Кбит/сек

MediaInfo:

Общее
Полное имя : Пэн׃ Путешествие в Нетландию Русский Трейлер (2015).mp4
Формат : MPEG-4
Профиль формата : Base Media
Идентификатор кодека : isom
Размер файла : 55,4 Мбайт
Продолжительность : 2 м. 27 с.
Общий поток : 3154 Кбит/сек
Программа кодирования : Lavf56.19.100
Видео
Идентификатор : 1
Формат : AVC
Формат/Информация : Advanced Video Codec
Профиль формата : [email protected]
Параметр CABAC формата : Да
Параметр ReFrames формата : 2 кадра
Идентификатор кодека : avc1
Идентификатор кодека/Информация : Advanced Video Coding
Продолжительность : 2 м. 27 с.
Битрейт : 2895 Кбит/сек
Ширина : 1920 пикселей
Высота : 796 пикселей
Соотношение сторон : 2,40:1
Режим частоты кадров : Постоянный
Частота кадров : 25,000 кадров/сек
Цветовое пространство : YUV
Субдискретизация насыщенности : 4:2:0
Битовая глубина : 8 бит
Тип развёртки : Прогрессивная
Бит/(Пиксели*Кадры) : 0.076
Размер потока : 50,8 Мбайт (92%)
Аудио
Идентификатор : 2
Формат : AAC
Формат/Информация : Advanced Audio Codec
Профиль формата : LC
Идентификатор кодека : 40
Продолжительность : 2 м. 27 с.
Вид битрейта : Постоянный
Битрейт : 254 Кбит/сек
Каналы : 2 канала
Расположение каналов : Front: L R
Частота : 44,1 КГц
Метод сжатия : С потерями
Размер потока : 4,45 Мбайт (8%)
Скриншоты ------
Яндекс.Метрика
Рейтинг@Mail.ru