(Classic Rock, Hard Rock) Meat Loaf - Original Album Classics (Set Box 5CD) - 2015 [FLAC, image+.cue, lossless]

 

Создавать темы 27-Май-2015 09:28

-Meat Loaf / Original Album Classics (Set Box 5CD)-- Год издания: 2015
Страна: USA
Жанр: Classic Rock, Hard Rock
Продолжительность: 04:00:43-Лейбл издания: Sony/Epic/Legacy
Страна-выпуска диска: EU
Номер по каталогу: 88875063672
Формат: FLAC
Битрейт аудио: lossless
Тип рипа: image+.cue
Наличие сканов в содержимом раздачи: да
-

Трэклист

1981 - Dead Ringer (Original Album Classics,2015) || 00:42:09

01. Peel Out (06:33)
02. I'm Gonna Love Her For Both Of Us (07:09)
03. More Than You Deserve (06:58)
04. I'll Kill You If You Don't Come Back (06:24)
05. Read 'Em And Weep (05:28)
06. Nocturnal Pleasure (00:38)
07. Dead Ringer For Love (04:23)
08. Everything Is Permitted (04:40)

1983 - Midnight At The Lost And Found (Original Album Classics,2015) || 00:37:00

01. Razor's Edge (04:09)
02. Midnight At The Lost And Found (03:31)
03. Wolf At Your Door (04:08)
04. Keep Driving (03:34)
05. The Promised Land (02:47)
06. You Never Can Be Too Sure About The Girl (04:31)
07. Priscilla (03:35)
08. Don't You Look At Me Like That (03:30)
09. If You Really Want To (03:40)
10. Fallen Angel (03:40)

1984 - Bad Attitude (Original Album Classics,2015) || 00:40:09

01. Bad Attitude (04:58)
02. Modern Girl (04:28)
03. Nowhere Fast (05:13)
04. Surf's Up (04:46)
05. Piece Of The Action (04:02)
06. Jumpin' The Gun (03:14)
07. Sailor To A Siren (05:06)
08. Don't Leave Your Mark On Me (04:08)
09. Cheatin' In Your Dreams (04:16)

1986 - Blind Before I Stop (Original Album Classics,2015) || 00:50:34

01. Execution Day (06:32)
02. Rock 'n' Roll Mercenaries (05:01)
03. Getting Away With Murder (03:51)
04. One More Kiss (Night Of The Soft Parade) (05:38)
05. Blind Before I Stop (03:36)
06. Burning Down (05:00)
07. Standing On The Outside (03:59)
08. Masculine (04:24)
09. Man And A Woman (04:12)
10. Special Girl (03:56)
11. Rock 'n' Roll Hero (04:31)

1987 - Live At Wembley (Original Album Classics,2015) || 01:10:52

01. Blind Before I Stop (03:55)
02. Rock 'n' Roll Mercenaries (05:34)
03. Took The Words (07:49)
04. Midnight At The Lost And Found (03:50)
05. Modern Girl (05:44)
06. Paradise By The Dashboard Light (10:04)
07. Two Out Of Three Ain't Bad (08:07)
08. Bat Out Of Hell (10:29)
09. Masculine (06:51)
10. Rock 'n' Roll Medley (08:34)
--

Лог создания рипа

1981

Exact Audio Copy V1.0 beta 6 from 9. April 2015
EAC extraction logfile from 13. May 2015, 17:26
Meat Loaf / Dead Ringer (Original Album Classics,2015)
Used drive  : HL-DT-STDVDRAM GH22NS40   Adapter: 1  ID: 0
Read mode               : Secure
Utilize accurate stream : Yes
Defeat audio cache      : Yes
Make use of C2 pointers : No
Read offset correction                      : 667
Overread into Lead-In and Lead-Out          : No
Fill up missing offset samples with silence : Yes
Delete leading and trailing silent blocks   : No
Null samples used in CRC calculations       : Yes
Used interface                              : Native Win32 interface for Win NT & 2000
Used output format              : User Defined Encoder
Selected bitrate                : 1024 kBit/s
Quality                         : High
Add ID3 tag                     : Yes
Command line compressor         : C:\Program Files\Exact Audio Copy\Flac\flac.exe
Additional command line options : -V -8 -T "Date=%year%" -T "Genre=%genre%" %source%
TOC of the extracted CD
     Track |   Start  |  Length  | Start sector | End sector
    ---------------------------------------------------------
        1  |  0:00.00 |  6:32.05 |         0    |    29404
        2  |  6:32.05 |  7:08.30 |     29405    |    61534
        3  | 13:40.35 |  6:57.22 |     61535    |    92831
        4  | 20:37.57 |  6:23.43 |     92832    |   121599
        5  | 27:01.25 |  5:27.32 |    121600    |   146156
        6  | 32:28.57 |  0:37.68 |    146157    |   148999
        7  | 33:06.50 |  4:22.57 |    149000    |   168706
        8  | 37:29.32 |  4:39.35 |    168707    |   189666
Range status and errors
Selected range
     Filename I:\Rips\Meat Loaf - Dead Ringer (Original Album Classics,2015).wav
     Peak level 100.0 %
     Extraction speed 1.9 X
     Range quality 99.9 %
     Test CRC 56A4A98D
     Copy CRC 56A4A98D
     Copy OK
No errors occurred
AccurateRip summary
Track  1  accurately ripped (confidence 3)  [F8765AA6]  (AR v2)
Track  2  accurately ripped (confidence 6)  [BDD70293]  (AR v2)
Track  3  accurately ripped (confidence 6)  [39D98E39]  (AR v2)
Track  4  accurately ripped (confidence 6)  [38ABDE71]  (AR v2)
Track  5  accurately ripped (confidence 6)  [783DCA27]  (AR v2)
Track  6  accurately ripped (confidence 6)  [C81C8A21]  (AR v2)
Track  7  accurately ripped (confidence 6)  [43D538E0]  (AR v2)
Track  8  accurately ripped (confidence 6)  [A45128D5]  (AR v2)
All tracks accurately ripped
End of status report
---- CUETools DB Plugin V2.1.6
[CTDB TOCID: OLE4vzZGJTi5qG9UEfJhVY8sXWU-] found
Submit result:
Track | CTDB Status
  1   | (13/15) Accurately ripped
  2   | (14/15) Accurately ripped
  3   | (15/15) Accurately ripped
  4   | (15/15) Accurately ripped
  5   | (15/15) Accurately ripped
  6   | (15/15) Accurately ripped
  7   | (15/15) Accurately ripped
  8   | (15/15) Accurately ripped

1983

Exact Audio Copy V1.0 beta 6 from 9. April 2015
EAC extraction logfile from 12. May 2015, 17:39
Meat Loaf / Midnight At The Lost And Found (Original Album Classics,2015)
Used drive  : HL-DT-STDVDRAM GH22NS40   Adapter: 1  ID: 0
Read mode               : Secure
Utilize accurate stream : Yes
Defeat audio cache      : Yes
Make use of C2 pointers : No
Read offset correction                      : 667
Overread into Lead-In and Lead-Out          : No
Fill up missing offset samples with silence : Yes
Delete leading and trailing silent blocks   : No
Null samples used in CRC calculations       : Yes
Used interface                              : Native Win32 interface for Win NT & 2000
Used output format              : User Defined Encoder
Selected bitrate                : 1024 kBit/s
Quality                         : High
Add ID3 tag                     : Yes
Command line compressor         : C:\Program Files\Exact Audio Copy\Flac\flac.exe
Additional command line options : -V -8 -T "Date=%year%" -T "Genre=%genre%" %source%
TOC of the extracted CD
     Track |   Start  |  Length  | Start sector | End sector
    ---------------------------------------------------------
        1  |  0:00.00 |  4:08.32 |         0    |    18631
        2  |  4:08.32 |  3:30.50 |     18632    |    34431
        3  |  7:39.07 |  4:07.53 |     34432    |    53009
        4  | 11:46.60 |  3:33.07 |     53010    |    68991
        5  | 15:19.67 |  2:46.28 |     68992    |    81469
        6  | 18:06.20 |  4:30.02 |     81470    |   101721
        7  | 22:36.22 |  3:34.58 |    101722    |   117829
        8  | 26:11.05 |  3:29.42 |    117830    |   133546
        9  | 29:40.47 |  3:39.35 |    133547    |   150006
       10  | 33:20.07 |  3:39.08 |    150007    |   166439
Range status and errors
Selected range
     Filename I:\Rips\Meat Loaf - Midnight At The Lost And Found (Original Album Classics,2015).wav
     Peak level 97.7 %
     Extraction speed 1.6 X
     Range quality 100.0 %
     Test CRC 3E2AE37A
     Copy CRC 3E2AE37A
     Copy OK
No errors occurred
AccurateRip summary
Track  1  not present in database
Track  2  not present in database
Track  3  not present in database
Track  4  not present in database
Track  5  not present in database
Track  6  not present in database
Track  7  not present in database
Track  8  not present in database
Track  9  not present in database
Track 10  not present in database
None of the tracks are present in the AccurateRip database
End of status report
---- CUETools DB Plugin V2.1.6
[CTDB TOCID: DDbdNf7EHINZX0ECqyHPiNgRD5A-] found
Submit result:
Track | CTDB Status
  1   | (7/7) Accurately ripped
  2   | (7/7) Accurately ripped
  3   | (7/7) Accurately ripped
  4   | (7/7) Accurately ripped
  5   | (7/7) Accurately ripped
  6   | (7/7) Accurately ripped
  7   | (7/7) Accurately ripped
  8   | (7/7) Accurately ripped
  9   | (7/7) Accurately ripped
10   | (7/7) Accurately ripped

1984

Exact Audio Copy V1.0 beta 6 from 9. April 2015
EAC extraction logfile from 11. May 2015, 21:26
Meat Loaf / Bad Attitude (Original Album Classics,2015)
Used drive  : HL-DT-STDVDRAM GH22NS40   Adapter: 1  ID: 0
Read mode               : Secure
Utilize accurate stream : Yes
Defeat audio cache      : Yes
Make use of C2 pointers : No
Read offset correction                      : 667
Overread into Lead-In and Lead-Out          : No
Fill up missing offset samples with silence : Yes
Delete leading and trailing silent blocks   : No
Null samples used in CRC calculations       : Yes
Used interface                              : Native Win32 interface for Win NT & 2000
Used output format              : User Defined Encoder
Selected bitrate                : 1024 kBit/s
Quality                         : High
Add ID3 tag                     : Yes
Command line compressor         : C:\Program Files\Exact Audio Copy\Flac\flac.exe
Additional command line options : -V -8 -T "Date=%year%" -T "Genre=%genre%" %source%
TOC of the extracted CD
     Track |   Start  |  Length  | Start sector | End sector
    ---------------------------------------------------------
        1  |  0:00.00 |  4:57.67 |         0    |    22341
        2  |  4:57.67 |  4:27.50 |     22342    |    42416
        3  |  9:25.42 |  5:12.70 |     42417    |    65886
        4  | 14:38.37 |  4:45.50 |     65887    |    87311
        5  | 19:24.12 |  4:01.55 |     87312    |   105441
        6  | 23:25.67 |  3:13.35 |    105442    |   119951
        7  | 26:39.27 |  5:05.13 |    119952    |   142839
        8  | 31:44.40 |  4:07.70 |    142840    |   161434
        9  | 35:52.35 |  4:15.55 |    161435    |   180614
Range status and errors
Selected range
     Filename I:\Rips\Meat Loaf - Bad Attitude (Original Album Classics,2015).wav
     Peak level 100.0 %
     Extraction speed 1.6 X
     Range quality 100.0 %
     Test CRC 3B74FBD0
     Copy CRC 3B74FBD0
     Copy OK
No errors occurred
AccurateRip summary
Track  1  cannot be verified as accurate (confidence 23)  [4856AEBC], AccurateRip returned [2A61C7B3]  (AR v2)
Track  2  cannot be verified as accurate (confidence 23)  [78FF9C62], AccurateRip returned [1325A108]  (AR v2)
Track  3  cannot be verified as accurate (confidence 23)  [321024CB], AccurateRip returned [25DEC584]  (AR v2)
Track  4  cannot be verified as accurate (confidence 23)  [2B79F3AE], AccurateRip returned [52676B96]  (AR v2)
Track  5  cannot be verified as accurate (confidence 23)  [293457BC], AccurateRip returned [92E30071]  (AR v2)
Track  6  cannot be verified as accurate (confidence 23)  [422C84F8], AccurateRip returned [D9EB1BD5]  (AR v2)
Track  7  cannot be verified as accurate (confidence 23)  [39914D58], AccurateRip returned [2C80C270]  (AR v2)
Track  8  cannot be verified as accurate (confidence 23)  [E96DA9DD], AccurateRip returned [A0ED95F7]  (AR v2)
Track  9  cannot be verified as accurate (confidence 23)  [6A02AE20], AccurateRip returned [754BB6DE]  (AR v2)
No tracks could be verified as accurate
You may have a different pressing from the one(s) in the database
End of status report
---- CUETools DB Plugin V2.1.6
[CTDB TOCID: xr3PuhvZR4Q.HR4RVpykR0QT7Y4-] found
Submit result:
Track | CTDB Status
  1   | (18/18) Accurately ripped
  2   | (18/18) Accurately ripped
  3   | (18/18) Accurately ripped
  4   | (18/18) Accurately ripped
  5   | (18/18) Accurately ripped
  6   | (18/18) Accurately ripped
  7   | (18/18) Accurately ripped
  8   | (18/18) Accurately ripped
  9   | (18/18) Accurately ripped

1986

Exact Audio Copy V1.0 beta 6 from 9. April 2015
EAC extraction logfile from 11. May 2015, 20:23
Meat Loaf / Blind Before I Stop (Original Album Classics,2015)
Used drive  : HL-DT-STDVDRAM GH22NS40   Adapter: 1  ID: 0
Read mode               : Secure
Utilize accurate stream : Yes
Defeat audio cache      : Yes
Make use of C2 pointers : No
Read offset correction                      : 667
Overread into Lead-In and Lead-Out          : No
Fill up missing offset samples with silence : Yes
Delete leading and trailing silent blocks   : No
Null samples used in CRC calculations       : Yes
Used interface                              : Native Win32 interface for Win NT & 2000
Used output format              : User Defined Encoder
Selected bitrate                : 1024 kBit/s
Quality                         : High
Add ID3 tag                     : Yes
Command line compressor         : C:\Program Files\Exact Audio Copy\Flac\flac.exe
Additional command line options : -V -8 -T "Date=%year%" -T "Genre=%genre%" %source%
TOC of the extracted CD
     Track |   Start  |  Length  | Start sector | End sector
    ---------------------------------------------------------
        1  |  0:00.00 |  6:31.17 |         0    |    29341
        2  |  6:31.17 |  5:00.23 |     29342    |    51864
        3  | 11:31.40 |  3:50.60 |     51865    |    69174
        4  | 15:22.25 |  5:37.67 |     69175    |    94516
        5  | 21:00.17 |  3:35.03 |     94517    |   110644
        6  | 24:35.20 |  4:59.12 |    110645    |   133081
        7  | 29:34.32 |  3:58.28 |    133082    |   150959
        8  | 33:32.60 |  4:23.22 |    150960    |   170706
        9  | 37:56.07 |  4:11.28 |    170707    |   189559
       10  | 42:07.35 |  3:55.52 |    189560    |   207236
       11  | 46:03.12 |  4:30.60 |    207237    |   227546
Range status and errors
Selected range
     Filename I:\Rips\Meat Loaf - Blind Before I Stop (Original Album Classics,2015).wav
     Peak level 87.8 %
     Extraction speed 1.7 X
     Range quality 100.0 %
     Test CRC EB609397
     Copy CRC EB609397
     Copy OK
No errors occurred
AccurateRip summary
Track  1  cannot be verified as accurate (confidence 24)  [751CA872], AccurateRip returned [743F55ED]  (AR v2)
Track  2  cannot be verified as accurate (confidence 24)  [70CC55FD], AccurateRip returned [C688F6EA]  (AR v2)
Track  3  cannot be verified as accurate (confidence 23)  [823B72A8], AccurateRip returned [39D95725]  (AR v2)
Track  4  cannot be verified as accurate (confidence 24)  [8A914A44], AccurateRip returned [87BEE288]  (AR v2)
Track  5  cannot be verified as accurate (confidence 24)  [FC38A156], AccurateRip returned [4B000408]  (AR v2)
Track  6  cannot be verified as accurate (confidence 24)  [A4FCEE78], AccurateRip returned [A1E6A4CF]  (AR v2)
Track  7  cannot be verified as accurate (confidence 23)  [131DD35E], AccurateRip returned [2857A733]  (AR v2)
Track  8  cannot be verified as accurate (confidence 24)  [D5A8B5C5], AccurateRip returned [622F4F1E]  (AR v2)
Track  9  cannot be verified as accurate (confidence 24)  [00FE34A6], AccurateRip returned [8B066F04]  (AR v2)
Track 10  cannot be verified as accurate (confidence 24)  [E2CC0C4C], AccurateRip returned [A5028369]  (AR v2)
Track 11  cannot be verified as accurate (confidence 24)  [C29155EF], AccurateRip returned [3293E188]  (AR v2)
No tracks could be verified as accurate
You may have a different pressing from the one(s) in the database
End of status report
---- CUETools DB Plugin V2.1.6
[CTDB TOCID: j_3lVCZByld0LVKsuLtTRBv8VHo-] found
Submit result:
Track | CTDB Status
  1   | ( 6/36) Accurately ripped
  2   | ( 6/36) Accurately ripped
  3   | ( 6/36) Accurately ripped
  4   | ( 6/36) Accurately ripped
  5   | ( 6/36) Accurately ripped
  6   | ( 6/36) Accurately ripped
  7   | ( 6/36) Accurately ripped
  8   | ( 6/36) Accurately ripped
  9   | ( 6/36) Accurately ripped
10   | ( 6/36) Accurately ripped
11   | ( 6/36) Accurately ripped

1987

Exact Audio Copy V1.0 beta 6 from 9. April 2015
EAC extraction logfile from 12. May 2015, 22:18
Meat Loaf / Live At Wembley (Original Album Classics,2015)
Used drive  : HL-DT-STDVDRAM GH22NS40   Adapter: 1  ID: 0
Read mode               : Secure
Utilize accurate stream : Yes
Defeat audio cache      : Yes
Make use of C2 pointers : No
Read offset correction                      : 667
Overread into Lead-In and Lead-Out          : No
Fill up missing offset samples with silence : Yes
Delete leading and trailing silent blocks   : No
Null samples used in CRC calculations       : Yes
Used interface                              : Native Win32 interface for Win NT & 2000
Used output format              : User Defined Encoder
Selected bitrate                : 1024 kBit/s
Quality                         : High
Add ID3 tag                     : Yes
Command line compressor         : C:\Program Files\Exact Audio Copy\Flac\flac.exe
Additional command line options : -V -8 -T "Date=%year%" -T "Genre=%genre%" %source%
TOC of the extracted CD
     Track |   Start  |  Length  | Start sector | End sector
    ---------------------------------------------------------
        1  |  0:00.00 |  3:54.02 |         0    |    17551
        2  |  3:54.02 |  5:33.53 |     17552    |    42579
        3  |  9:27.55 |  7:48.30 |     42580    |    77709
        4  | 17:16.10 |  3:49.60 |     77710    |    94944
        5  | 21:05.70 |  5:43.20 |     94945    |   120689
        6  | 26:49.15 | 10:03.67 |    120690    |   165981
        7  | 36:53.07 |  8:06.43 |    165982    |   202474
        8  | 44:59.50 | 10:28.47 |    202475    |   249621
        9  | 55:28.22 |  6:50.45 |    249622    |   280416
       10  | 62:18.67 |  8:33.08 |    280417    |   318899
Range status and errors
Selected range
     Filename I:\Rips\Meat Loaf - Live At Wembley (Original Album Classics,2015).wav
     Peak level 100.0 %
     Extraction speed 2.0 X
     Range quality 100.0 %
     Test CRC FF669D82
     Copy CRC FF669D82
     Copy OK
No errors occurred
AccurateRip summary
Track  1  cannot be verified as accurate (confidence 41)  [EF5581CE], AccurateRip returned [71583F6C]  (AR v2)
Track  2  cannot be verified as accurate (confidence 39)  [25C0337F], AccurateRip returned [7F650DC9]  (AR v2)
Track  3  cannot be verified as accurate (confidence 40)  [116725D7], AccurateRip returned [6EB6AA6F]  (AR v2)
Track  4  cannot be verified as accurate (confidence 41)  [B8BF862D], AccurateRip returned [65CF02A0]  (AR v2)
Track  5  cannot be verified as accurate (confidence 40)  [3B11A167], AccurateRip returned [C6D48CD3]  (AR v2)
Track  6  cannot be verified as accurate (confidence 40)  [169CE015], AccurateRip returned [828C26E6]  (AR v2)
Track  7  cannot be verified as accurate (confidence 37)  [00E280D0], AccurateRip returned [9CF5E0CC]  (AR v2)
Track  8  cannot be verified as accurate (confidence 37)  [F08E3E3F], AccurateRip returned [03596FD6]  (AR v2)
Track  9  cannot be verified as accurate (confidence 37)  [8D38283D], AccurateRip returned [A98EC4CB]  (AR v2)
Track 10  cannot be verified as accurate (confidence 34)  [70713DA3], AccurateRip returned [83EF8EDC]  (AR v2)
No tracks could be verified as accurate
You may have a different pressing from the one(s) in the database
End of status report
---- CUETools DB Plugin V2.1.6
[CTDB TOCID: VZa8Sqf6mKNuXgDN5c0Bsjp9SjU-] found
Submit result:
Track | CTDB Status
  1   | (35/36) Accurately ripped
  2   | (35/36) Accurately ripped
  3   | (35/36) Accurately ripped
  4   | (35/36) Accurately ripped
  5   | (34/36) Accurately ripped
  6   | (35/36) Accurately ripped
  7   | (35/36) Accurately ripped
  8   | (35/36) Accurately ripped
  9   | (33/36) Accurately ripped
10   | (34/36) Accurately ripped

Индексная карта (non-compilant .cue)

1981

REM GENRE Rock
REM DATE 1981
REM DISCID 6C09E008
REM COMMENT "ExactAudioCopy v1.0b6"
PERFORMER "Meat Loaf"
TITLE "Dead Ringer (Original Album Classics,2015)"
FILE "Meat Loaf - Dead Ringer (Original Album Classics,2015).flac" WAVE
  TRACK 01 AUDIO
    TITLE "Peel Out"
    PERFORMER "Meat Loaf"
    INDEX 01 00:00:00
  TRACK 02 AUDIO
    TITLE "I'm Gonna Love Her For Both Of Us"
    PERFORMER "Meat Loaf"
    INDEX 00 06:29:60
    INDEX 01 06:32:05
  TRACK 03 AUDIO
    TITLE "More Than You Deserve"
    PERFORMER "Meat Loaf"
    INDEX 00 13:38:60
    INDEX 01 13:40:35
  TRACK 04 AUDIO
    TITLE "I'll Kill You If You Don't Come Back"
    PERFORMER "Meat Loaf"
    INDEX 00 20:36:37
    INDEX 01 20:37:57
  TRACK 05 AUDIO
    TITLE "Read 'Em And Weep"
    PERFORMER "Meat Loaf"
    INDEX 00 27:00:45
    INDEX 01 27:01:25
  TRACK 06 AUDIO
    TITLE "Nocturnal Pleasure"
    PERFORMER "Meat Loaf"
    INDEX 00 32:25:22
    INDEX 01 32:28:57
  TRACK 07 AUDIO
    TITLE "Dead Ringer For Love"
    PERFORMER "Meat Loaf"
    INDEX 01 33:06:50
  TRACK 08 AUDIO
    TITLE "Everything Is Permitted"
    PERFORMER "Meat Loaf"
    INDEX 00 37:27:27
    INDEX 01 37:29:32

1983

REM GENRE Rock
REM DATE 1983
REM DISCID 7708AB0A
REM COMMENT "ExactAudioCopy v1.0b6"
PERFORMER "Meat Loaf"
TITLE "Midnight At The Lost And Found (Original Album Classics,2015)"
FILE "Meat Loaf - Midnight At The Lost And Found (Original Album Classics,2015).flac" WAVE
  TRACK 01 AUDIO
    TITLE "Razor's Edge"
    PERFORMER "Meat Loaf"
    INDEX 01 00:00:00
  TRACK 02 AUDIO
    TITLE "Midnight At The Lost And Found"
    PERFORMER "Meat Loaf"
    INDEX 00 04:07:32
    INDEX 01 04:08:32
  TRACK 03 AUDIO
    TITLE "Wolf At Your Door"
    PERFORMER "Meat Loaf"
    INDEX 00 07:38:07
    INDEX 01 07:39:07
  TRACK 04 AUDIO
    TITLE "Keep Driving"
    PERFORMER "Meat Loaf"
    INDEX 00 11:45:60
    INDEX 01 11:46:60
  TRACK 05 AUDIO
    TITLE "The Promised Land"
    PERFORMER "Meat Loaf"
    INDEX 00 15:18:67
    INDEX 01 15:19:67
  TRACK 06 AUDIO
    TITLE "You Never Can Be Too Sure About The Girl"
    PERFORMER "Meat Loaf"
    INDEX 00 18:05:20
    INDEX 01 18:06:20
  TRACK 07 AUDIO
    TITLE "Priscilla"
    PERFORMER "Meat Loaf"
    INDEX 00 22:35:22
    INDEX 01 22:36:22
  TRACK 08 AUDIO
    TITLE "Don't You Look At Me Like That"
    PERFORMER "Meat Loaf"
    INDEX 00 26:10:05
    INDEX 01 26:11:05
  TRACK 09 AUDIO
    TITLE "If You Really Want To"
    PERFORMER "Meat Loaf"
    INDEX 00 29:39:47
    INDEX 01 29:40:47
  TRACK 10 AUDIO
    TITLE "Fallen Angel"
    PERFORMER "Meat Loaf"
    INDEX 00 33:19:07
    INDEX 01 33:20:07

1984

REM GENRE Rock
REM DATE 1984
REM DISCID 76096809
REM COMMENT "ExactAudioCopy v1.0b6"
PERFORMER "Meat Loaf"
TITLE "Bad Attitude (Original Album Classics,2015)"
FILE "Meat Loaf - Bad Attitude (Original Album Classics,2015).flac" WAVE
  TRACK 01 AUDIO
    TITLE "Bad Attitude"
    PERFORMER "Meat Loaf"
    INDEX 01 00:00:00
  TRACK 02 AUDIO
    TITLE "Modern Girl"
    PERFORMER "Meat Loaf"
    INDEX 00 04:55:12
    INDEX 01 04:57:67
  TRACK 03 AUDIO
    TITLE "Nowhere Fast"
    PERFORMER "Meat Loaf"
    INDEX 00 09:25:35
    INDEX 01 09:25:42
  TRACK 04 AUDIO
    TITLE "Surf's Up"
    PERFORMER "Meat Loaf"
    INDEX 00 14:37:47
    INDEX 01 14:38:37
  TRACK 05 AUDIO
    TITLE "Piece Of The Action"
    PERFORMER "Meat Loaf"
    INDEX 00 19:23:50
    INDEX 01 19:24:12
  TRACK 06 AUDIO
    TITLE "Jumpin' The Gun"
    PERFORMER "Meat Loaf"
    INDEX 00 23:25:47
    INDEX 01 23:25:67
  TRACK 07 AUDIO
    TITLE "Sailor To A Siren"
    PERFORMER "Meat Loaf"
    INDEX 00 26:38:55
    INDEX 01 26:39:27
  TRACK 08 AUDIO
    TITLE "Don't Leave Your Mark On Me"
    PERFORMER "Meat Loaf"
    INDEX 00 31:44:30
    INDEX 01 31:44:40
  TRACK 09 AUDIO
    TITLE "Cheatin' In Your Dreams"
    PERFORMER "Meat Loaf"
    INDEX 00 35:51:15
    INDEX 01 35:52:35

1986

REM GENRE Rock
REM DATE 1986
REM DISCID A50BD90B
REM COMMENT "ExactAudioCopy v1.0b6"
PERFORMER "Meat Loaf"
TITLE "Blind Before I Stop (Original Album Classics,2015)"
FILE "Meat Loaf - Blind Before I Stop (Original Album Classics,2015).flac" WAVE
  TRACK 01 AUDIO
    TITLE "Execution Day"
    PERFORMER "Meat Loaf"
    INDEX 01 00:00:00
  TRACK 02 AUDIO
    TITLE "Rock 'n' Roll Mercenaries"
    PERFORMER "Meat Loaf"
    INDEX 01 06:31:17
  TRACK 03 AUDIO
    TITLE "Getting Away With Murder"
    PERFORMER "Meat Loaf"
    INDEX 00 11:31:25
    INDEX 01 11:31:40
  TRACK 04 AUDIO
    TITLE "One More Kiss (Night Of The Soft Parade)"
    PERFORMER "Meat Loaf"
    INDEX 00 15:21:55
    INDEX 01 15:22:25
  TRACK 05 AUDIO
    TITLE "Blind Before I Stop"
    PERFORMER "Meat Loaf"
    INDEX 01 21:00:17
  TRACK 06 AUDIO
    TITLE "Burning Down"
    PERFORMER "Meat Loaf"
    INDEX 00 24:33:47
    INDEX 01 24:35:20
  TRACK 07 AUDIO
    TITLE "Standing On The Outside"
    PERFORMER "Meat Loaf"
    INDEX 01 29:34:32
  TRACK 08 AUDIO
    TITLE "Masculine"
    PERFORMER "Meat Loaf"
    INDEX 00 33:32:40
    INDEX 01 33:32:60
  TRACK 09 AUDIO
    TITLE "Man And A Woman"
    PERFORMER "Meat Loaf"
    INDEX 01 37:56:07
  TRACK 10 AUDIO
    TITLE "Special Girl"
    PERFORMER "Meat Loaf"
    INDEX 01 42:07:35
  TRACK 11 AUDIO
    TITLE "Rock 'n' Roll Hero"
    PERFORMER "Meat Loaf"
    INDEX 01 46:03:12

1987

REM GENRE Rock
REM DATE 1987
REM DISCID 71109C0A
REM COMMENT "ExactAudioCopy v1.0b6"
PERFORMER "Meat Loaf"
TITLE "Live At Wembley (Original Album Classics,2015)"
FILE "Meat Loaf - Live At Wembley (Original Album Classics,2015).flac" WAVE
  TRACK 01 AUDIO
    TITLE "Blind Before I Stop"
    PERFORMER "Meat Loaf"
    INDEX 01 00:00:00
  TRACK 02 AUDIO
    TITLE "Rock 'n' Roll Mercenaries"
    PERFORMER "Meat Loaf"
    INDEX 00 03:54:00
    INDEX 01 03:54:02
  TRACK 03 AUDIO
    TITLE "Took The Words"
    PERFORMER "Meat Loaf"
    INDEX 00 09:27:52
    INDEX 01 09:27:55
  TRACK 04 AUDIO
    TITLE "Midnight At The Lost And Found"
    PERFORMER "Meat Loaf"
    INDEX 00 17:16:07
    INDEX 01 17:16:10
  TRACK 05 AUDIO
    TITLE "Modern Girl"
    PERFORMER "Meat Loaf"
    INDEX 00 21:05:67
    INDEX 01 21:05:70
  TRACK 06 AUDIO
    TITLE "Paradise By The Dashboard Light"
    PERFORMER "Meat Loaf"
    INDEX 00 26:49:12
    INDEX 01 26:49:15
  TRACK 07 AUDIO
    TITLE "Two Out Of Three Ain't Bad"
    PERFORMER "Meat Loaf"
    INDEX 00 36:53:05
    INDEX 01 36:53:07
  TRACK 08 AUDIO
    TITLE "Bat Out Of Hell"
    PERFORMER "Meat Loaf"
    INDEX 00 44:59:47
    INDEX 01 44:59:50
  TRACK 09 AUDIO
    TITLE "Masculine"
    PERFORMER "Meat Loaf"
    INDEX 00 55:28:20
    INDEX 01 55:28:22
  TRACK 10 AUDIO
    TITLE "Rock 'n' Roll Medley"
    PERFORMER "Meat Loaf"
    INDEX 00 62:18:65
    INDEX 01 62:18:67
--Не забываем говорить
Яндекс.Метрика
Рейтинг@Mail.ru