[ Сегодня на трекере фрилич! Идет свободное скачивание без начисления Download ]

Белые поселенцы / White Settlers (2014) DVDRip

 

Создавать темы 19-Май-2015 16:09

-Белые поселенцы / White Settlers (2014) DVDRip- Производство: Великобритания / Not a Number
Жанр: Ужасы, Триллер, Детектив
Режиссер: Семен Халлиган
Продюсер: Рэйчел Ричардсон-Джонс, Чарльз Бейтс
Актеры: Поллианна МакИнтош, Ли Уильямс, Джоэнн Митчелл, Джеймс МакКриди, Доминик Кэй
Описание:
Это первая ночь Эда и Сары в их новом доме, который находится на отшибе у шотландской границы. Этот переезд должен был стать для них новым началом, после тяжелой жизни в Лондоне. Поначалу все идет хорошо, но с наступлением темноты Сару начинают мучать подозрения, что кроме них в округе есть кто-то еще. Эд отправляется проверить так ли это, и в результате вечер превращается в кошмар.

Дата мировой премьеры: 23 августа 2014
Продолжительность: 01:19:29
Качество видео: DVDRip
Перевод: Двуголосый закадровый, любительский
Озвучка / Автор перевода: den904 & DeadSno
Примечание: Присутствует ненормативная лексика
Субтитры: Отсутствуют
Видеокодек: Xvid
Битрейт видео: ~2085 kbps
Размер кадра: 720x400
Аудио #1: AC3, 2 ch, 192 Кбит/с (Русский)
Аудио #2: AC3, 2 ch, 192 Кбит/с (Английский)

Mediainfo:

Общее
Полное имя                               : White.Settlers.2014.L2.DVDRip.avi
Формат                                   : AVI
Формат/Информация                        : Audio Video Interleave
Размер файла                             : 1,38 Гбайт
Продолжительность                        : 1 ч. 19 м.
Общий поток                              : 2484 Кбит/сек
Программа кодирования                    : VirtualDubMod 1.5.10.3 | [url=http://www.virtualdub-fr.org]www.virtualdub-fr.org[/url] || (build 2550/release)
Библиотека кодирования                   : VirtualDubMod build 2550/release
Видео
Идентификатор                            : 0
Формат                                   : MPEG-4 Visual
Профиль формата                          : Advanced [email protected]
Параметр BVOP формата                    : 1
Параметр QPel формата                    : Нет
Параметр GMC формата                     : Без точки перехода
Параметр матрицы формата                 : Выборочная
Идентификатор кодека                     : XVID
Идентификатор кодека/Подсказка           : XviD
Продолжительность                        : 1 ч. 19 м.
Битрейт                                  : 2085 Кбит/сек
Ширина                                   : 720 пикселей
Высота                                   : 400 пикселей
Соотношение сторон                       : 16:9
Частота кадров                           : 25,000 кадров/сек
Цветовое пространство                    : YUV
Субдискретизация насыщенности            : 4:2:0
Битовая глубина                          : 8 бит
Тип развёртки                            : Прогрессивная
Метод сжатия                             : С потерями
Бит/(Пиксели*Кадры)                      : 0.290
Размер потока                            : 1,16 Гбайт (84%)
Библиотека кодирования                   : XviD 73
Аудио #1
Идентификатор                            : 1
Формат                                   : AC-3
Формат/Информация                        : Audio Coding 3
Расширение режима                        : CM (complete main)
Параметр Endianness формата              : Big
Идентификатор кодека                     : 2000
Продолжительность                        : 1 ч. 19 м.
Вид битрейта                             : Постоянный
Битрейт                                  : 192 Кбит/сек
Каналы                                   : 2 канала
Расположение каналов                     : Front: L R
Частота                                  : 48,0 КГц
Битовая глубина                          : 16 бит
Метод сжатия                             : С потерями
Размер потока                            : 109 Мбайт (8%)
Выравнивание                             : Разделение по промежуткам
Продолжительность промежутка             : 40  мс. (1,00 видеокадр)
Время предзагрузки промежутка            : 500  мс.
Аудио #2
Идентификатор                            : 2
Формат                                   : AC-3
Формат/Информация                        : Audio Coding 3
Расширение режима                        : CM (complete main)
Параметр Endianness формата              : Big
Идентификатор кодека                     : 2000
Продолжительность                        : 1 ч. 19 м.
Вид битрейта                             : Постоянный
Битрейт                                  : 192 Кбит/сек
Каналы                                   : 2 канала
Расположение каналов                     : Front: L R
Частота                                  : 48,0 КГц
Битовая глубина                          : 16 бит
Метод сжатия                             : С потерями
Размер потока                            : 109 Мбайт (8%)
Выравнивание                             : Разделение по промежуткам
Продолжительность промежутка             : 40  мс. (1,00 видеокадр)
Время предзагрузки промежутка            : 500  мс.
Скриншоты:
Время раздачи: 24/7 (круглосуточно) по возможности
Яндекс.Метрика
Рейтинг@Mail.ru