Безграничный Бэтмен: Животные инстинкты / Batman Unlimited: Animal Instincts (2015,мультфильм, боевик, приключения) BDRip 720p | P

 

Создавать темы 19-Май-2015 13:41

-Безграничный Бэтмен: Животные инстинкты / Batman Unlimited: Animal Instincts (2015) -Информация о фильме
Название: Безграничный Бэтмен: Животные инстинкты
Оригинальное название: Batman Unlimited: Animal Instincts
Год выхода: 2015
Жанр: мультфильм, боевик, приключения
Режиссер: Батч Лукич
В ролях: Крис Диамантополос, Роджер Крэйг Смит, Трэвис Уиллингэм, Дэна Снайдер...--О фильме:
В городе Готэм-сити злодей по прозвищу Пингвин организовал преступную группу Animilitia — горилла Сильвербек, гепард Гепардица, крокодил Убийца Крок и летучая мышь Мэн-Бэт. И противостоит им Бэтмен и его товарищи — Ночное Крыло, Красный Робин, Флэш, Зелёная Стрела.-- --Страна: США
Студия: DC Comics, DC Entertainment, Warner Bros. Animation
Продолжительность: 01:17:22
Перевод: Профессиональный многоголосый--Файл
Кодек: MPEG-4 AVC (MKV)
Качество: BDRip 720p
Видео: MPEG-4 AVC, 2526 Кбит/с, 1280x720
Звук: Русский (AC3, 2 ch, 384 Кбит/с), английский (AC3, 6 ch, 448 Кбит/с)
Субтитры: Английские

MediaInfo

General
Unique ID : 234644008752501899333920797412229289899 (0xB086CAD263108219BAB1D2FB47FA97AB)
Complete name : D:ДИСК�4.МУЛЬТФИЛЬМЫБезграничный Бэтмен Животные инстинкты Batman Unlimited Animal Instincts (2015)Batman.Unlimited.Animal.Instincts.2015.P.BDRip.720p.mkv
Format : Matroska
Format version : Version 4 / Version 2
File size : 1.82 GiB
Duration : 1h 17mn
Overall bit rate : 3 365 Kbps
Movie name : Uniongang.net [kolbas]
Encoded date : UTC 2015-05-04 16:59:39
Writing application : mkvmerge v7.7.0 ('Six Voices') 32bit built on Feb 28 2015 23:23:00
Writing library : libebml v1.3.1 + libmatroska v1.4.2
DURATION : 01:16:53.191000000
NUMBER_OF_FRAMES : 748
NUMBER_OF_BYTES : 2847967
_STATISTICS_WRITING_APP : mkvmerge v7.7.0 ('Six Voices') 32bit built on Feb 28 2015 23:23:00
_STATISTICS_WRITING_DATE_UTC : 2015-05-04 16:59:39
_STATISTICS_TAGS : BPS DURATION NUMBER_OF_FRAMES NUMBER_OF_BYTES
Video
ID : 1
Format : AVC
Format/Info : Advanced Video Codec
Format profile : [email protected]
Format settings, CABAC : Yes
Format settings, ReFrames : 5 frames
Codec ID : V_MPEG4/ISO/AVC
Duration : 1h 17mn
Bit rate : 2 526 Kbps
Width : 1 280 pixels
Height : 720 pixels
Display aspect ratio : 16:9
Frame rate mode : Constant
Frame rate : 23.976 fps
Color space : YUV
Chroma subsampling : 4:2:0
Bit depth : 8 bits
Scan type : Progressive
Bits/(Pixel*Frame) : 0.114
Stream size : 1.33 GiB (73%)
Title : Batman.Unlimited.Animal.Instincts.2015.720p.D.Uniongang.net.
Writing library : x264 core 144 r2525 40bb568
Encoding settings : cabac=1 / ref=5 / deblock=1:0:0 / analyse=0x3:0x133 / me=umh / subme=7 / psy=1 / psy_rd=1.00:0.00 / mixed_ref=1 / me_range=16 / chroma_me=1 / trellis=1 / 8x8dct=1 / cqm=0 / deadzone=21,11 / fast_pskip=0 / chroma_qp_offset=-2 / threads=60 / lookahead_threads=5 / sliced_threads=0 / nr=0 / decimate=1 / interlaced=0 / bluray_compat=0 / constrained_intra=0 / bframes=3 / b_pyramid=2 / b_adapt=1 / b_bias=0 / direct=1 / weightb=1 / open_gop=0 / weightp=2 / keyint=250 / keyint_min=23 / scenecut=40 / intra_refresh=0 / rc_lookahead=40 / rc=2pass / mbtree=1 / bitrate=2526 / ratetol=1.0 / qcomp=0.60 / qpmin=0 / qpmax=69 / qpstep=4 / cplxblur=20.0 / qblur=0.5 / ip_ratio=1.40 / aq=1:1.00
Language : English
Default : Yes
Forced : No
DURATION : 01:17:21.436000000
NUMBER_OF_FRAMES : 111283
NUMBER_OF_BYTES : 1465725697
_STATISTICS_WRITING_APP : mkvmerge v7.7.0 ('Six Voices') 32bit built on Feb 28 2015 23:23:00
_STATISTICS_WRITING_DATE_UTC : 2015-05-04 16:59:39
_STATISTICS_TAGS : BPS DURATION NUMBER_OF_FRAMES NUMBER_OF_BYTES
Audio #1
ID : 2
Format : AC-3
Format/Info : Audio Coding 3
Mode extension : CM (complete main)
Format settings, Endianness : Big
Codec ID : A_AC3
Duration : 1h 17mn
Bit rate mode : Constant
Bit rate : 384 Kbps
Channel(s) : 2 channels
Channel positions : Front: L R
Sampling rate : 48.0 KHz
Bit depth : 16 bits
Compression mode : Lossy
Stream size : 213 MiB (11%)
Language : Russian
Default : Yes
Forced : No
Audio #2
ID : 3
Format : AC-3
Format/Info : Audio Coding 3
Mode extension : CM (complete main)
Format settings, Endianness : Big
Codec ID : A_AC3
Duration : 1h 17mn
Bit rate mode : Constant
Bit rate : 448 Kbps
Channel(s) : 6 channels
Channel positions : Front: L C R, Side: L R, LFE
Sampling rate : 48.0 KHz
Bit depth : 16 bits
Compression mode : Lossy
Stream size : 248 MiB (13%)
Language : English
Default : No
Forced : No
Text
ID : 4
Format : VobSub
Muxing mode : zlib
Codec ID : S_VOBSUB
Codec ID/Info : The same subtitle format used on DVDs
Language : English
Default : No
Forced : No
Menu
00:00:00.000 : en:00:00:00.000
00:10:36.094 : en:00:10:36.094
00:21:05.014 : en:00:21:05.014
00:29:05.744 : en:00:29:05.744
00:42:19.620 : en:00:42:19.620
00:50:51.674 : en:00:50:51.674
01:00:26.540 : en:01:00:26.540
01:09:28.206 : en:01:09:28.206
01:14:47.900 : en:01:14:47.900

Скриншоты

Яндекс.Метрика
Рейтинг@Mail.ru