Из машины / Ex Machina (2015) HDRip-AVC от ExKinoRay | D, A | Лицензия

 

Создавать темы 16-Май-2015 21:31

Из машины / Ex MachinaГод выхода: 2015
Жанр: фантастика, драма
Режиссер: Алекс Гарленд
В ролях: Донал Глисон, Кори Джонсон, Оскар Айзек, Алисия Викандер, Соноя Мизуно, Симара А. Темплмен, Gana Bayarsaikhan, Тиффани Писани, Элина Алминас
О фильме: Калеб - обычный офисный работник, которому выпадает уникальный шанс побывать в доме невероятно богатого и талантливого программисты Нейтона и протестировать его новое изобретение. Герой селится в уединенном доме изобретателя и становится частью невообразимого эксперимента, ведь он должен протестировать женщину-робота по имени Ева, способную мыслить как обычный человек. Сможет ли Калеб пройти сложнейнее испытание в своей жизни и сделать правильный выбор, когда придёт время?

Выпущено: Великобритания
Продолжительность: 01:48:01
Озвучивание: Дублированное [лицензия]
•Авторское (одноголосое) Алексей Матвеев ( Перевод - MartinaG, Заказ - будулайроманов, Работа со звуком - Переводман)
Файл
Качество: HDRip (AVC)
Видео: MPEG-4 AVC, 1501 Кбит/с, 1024x426
Аудио: Русский, английский (AC3, 6 ch, 448 Кбит/с)
Субтитры: Русские, английские

MI

General
Unique ID                                : 236659718246758548269561464313726609172 (0xB20B00F90C3CAD3BA8B7F5C8264FA714)
Complete name                            : C:Ex.Machina.2015.HDRip.AVC.ExKinoRay.mkv
Format                                   : Matroska
Format version                           : Version 4 / Version 2
File size                                : 2.15 GiB
Duration                                 : 1h 48mn
Overall bit rate                         : 2 848 Kbps
Movie name                               : Ex Machina 2015 from ExKinoRay
Encoded date                             : UTC 2015-05-16 01:42:40
Writing application                      : mkvmerge v6.6.0 ('The Edge Of The In Between') built on Dec  1 2013 17:55:00
Writing library                          : libebml v1.3.0 + libmatroska v1.4.1
Video
ID                                       : 1
Format                                   : AVC
Format/Info                              : Advanced Video Codec
Format profile                           : [email protected]
Format settings, CABAC                   : Yes
Format settings, ReFrames                : 10 frames
Codec ID                                 : V_MPEG4/ISO/AVC
Duration                                 : 1h 48mn
Bit rate                                 : 1 501 Kbps
Width                                    : 1 024 pixels
Height                                   : 426 pixels
Display aspect ratio                     : 2.40:1
Frame rate mode                          : Constant
Frame rate                               : 23.976 fps
Color space                              : YUV
Chroma subsampling                       : 4:2:0
Bit depth                                : 8 bits
Scan type                                : Progressive
Bits/(Pixel*Frame)                       : 0.144
Stream size                              : 1.09 GiB (51%)
Title                                    : Enigma
Writing library                          : x264 core 133 r2334 a3ac64b
Encoding settings                        : cabac=1 / ref=10 / deblock=1:-3:-3 / analyse=0x3:0x113 / me=umh / subme=10 / psy=1 / psy_rd=1.05:0.15 / mixed_ref=1 / me_range=32 / chroma_me=1 / trellis=2 / 8x8dct=1 / cqm=0 / deadzone=21,11 / fast_pskip=0 / chroma_qp_offset=-3 / threads=12 / lookahead_threads=2 / sliced_threads=0 / nr=0 / decimate=0 / interlaced=0 / bluray_compat=0 / constrained_intra=0 / bframes=9 / b_pyramid=2 / b_adapt=2 / b_bias=0 / direct=3 / weightb=1 / open_gop=0 / weightp=2 / keyint=240 / keyint_min=23 / scenecut=40 / intra_refresh=0 / rc=2pass / mbtree=0 / bitrate=1501 / ratetol=1.0 / qcomp=0.70 / qpmin=0 / qpmax=51 / qpstep=4 / cplxblur=20.0 / qblur=0.5 / ip_ratio=1.40 / pb_ratio=1.30 / aq=1:1.00
Default                                  : Yes
Forced                                   : No
Color primaries                          : BT.709
Transfer characteristics                 : BT.709
Matrix coefficients                      : BT.709
Audio #1
ID                                       : 2
Format                                   : AC-3
Format/Info                              : Audio Coding 3
Mode extension                           : CM (complete main)
Format settings, Endianness              : Big
Codec ID                                 : A_AC3
Duration                                 : 1h 48mn
Bit rate mode                            : Constant
Bit rate                                 : 448 Kbps
Channel(s)                               : 6 channels
Channel positions                        : Front: L C R, Side: L R, LFE
Sampling rate                            : 48.0 KHz
Bit depth                                : 16 bits
Compression mode                         : Lossy
Stream size                              : 346 MiB (16%)
Title                                    : DUB
Language                                 : Russian
Default                                  : Yes
Forced                                   : No
Audio #2
ID                                       : 3
Format                                   : AC-3
Format/Info                              : Audio Coding 3
Mode extension                           : CM (complete main)
Format settings, Endianness              : Big
Codec ID                                 : A_AC3
Duration                                 : 1h 48mn
Bit rate mode                            : Constant
Bit rate                                 : 448 Kbps
Channel(s)                               : 6 channels
Channel positions                        : Front: L C R, Side: L R, LFE
Sampling rate                            : 48.0 KHz
Bit depth                                : 16 bits
Compression mode                         : Lossy
Stream size                              : 346 MiB (16%)
Title                                    : Matveev
Language                                 : Russian
Default                                  : No
Forced                                   : No
Audio #3
ID                                       : 4
Format                                   : AC-3
Format/Info                              : Audio Coding 3
Mode extension                           : CM (complete main)
Format settings, Endianness              : Big
Codec ID                                 : A_AC3
Duration                                 : 1h 48mn
Bit rate mode                            : Constant
Bit rate                                 : 448 Kbps
Channel(s)                               : 6 channels
Channel positions                        : Front: L C R, Side: L R, LFE
Sampling rate                            : 48.0 KHz
Bit depth                                : 16 bits
Compression mode                         : Lossy
Stream size                              : 346 MiB (16%)
Language                                 : English
Default                                  : No
Forced                                   : No
Text #1
ID                                       : 5
Format                                   : UTF-8
Codec ID                                 : S_TEXT/UTF8
Codec ID/Info                            : UTF-8 Plain Text
Language                                 : Russian
Default                                  : No
Forced                                   : No
Text #2
ID                                       : 6
Format                                   : UTF-8
Codec ID                                 : S_TEXT/UTF8
Codec ID/Info                            : UTF-8 Plain Text
Language                                 : English
Default                                  : No
Forced                                   : No
Text #3
ID                                       : 7
Format                                   : UTF-8
Codec ID                                 : S_TEXT/UTF8
Codec ID/Info                            : UTF-8 Plain Text
Title                                    : SDH
Language                                 : English
Default                                  : No
Forced                                   : No
Menu
00:00:00.000                             : en:00:00:00.000
00:04:34.941                             : en:00:04:34.941
00:11:16.634                             : en:00:11:16.634
00:15:08.157                             : en:00:15:08.157
00:23:38.751                             : en:00:23:38.751
00:31:57.999                             : en:00:31:57.999
00:36:05.163                             : en:00:36:05.163
00:40:26.758                             : en:00:40:26.758
00:45:56.379                             : en:00:45:56.379
00:53:28.956                             : en:00:53:28.956
01:00:26.081                             : en:01:00:26.081
01:04:01.254                             : en:01:04:01.254
01:07:19.077                             : en:01:07:19.077
01:13:22.023                             : en:01:13:22.023
01:16:56.111                             : en:01:16:56.111
01:21:36.517                             : en:01:21:36.517
01:27:36.835                             : en:01:27:36.835
01:32:54.152                             : en:01:32:54.152
01:38:51.008                             : en:01:38:51.008
01:42:26.932                             : en:01:42:26.932

Скриншоты:

Яндекс.Метрика
Рейтинг@Mail.ru