[ Сегодня на трекере фрилич! Идет свободное скачивание без начисления Download ]

(New Age/Natural Sound/Instrumental) Wu Judy Chin-tai - Moonlight Festival - 2001, FLAC (image+.cue), lossless

 

Создавать темы 04-Дек-2013 21:13

Wu Judy Chin-tai - Moonlight Festival
Жанр: New Age/Natural Sound/Instrumental
Год издания: 2001
Издатель (лейбл): Wind Music
Аудиокодек: Flac
Тип рипа: image+.cue
Битрейт аудио: lossless
Продолжительность: 00:49:30
Источник (релизер): net
Наличие сканов в содержимом раздачи: да
Треклист:
01. Night Falling
02. Moonlight Festival
03. Ode of Joy
04. Country Wind
05. Clumsy Beats
06. Silver River
07. Starlight Serenade
08. Secret Tribe
09. Gentle Slope
10. Dreams of Night Spirits
吉他 (Guitar): 董運昌 Dong Yun Chang
大提琴 (Violoncello): 范宗沛 Fan Zong Pei
打擊樂 (Percussion): 郭文喜 Guo Wen Xi

Лог создания рипа

Exact Audio Copy V0.99 prebeta 5 from 4. May 2009
EAC 抓取日志文件从10. 十二月 2010, 8:58
未知艺术家 / 未知标题
使用驱动器 :PIONEER DVD-RW DVR-116 Adapter: 0 ID: 1
读取模式 : 保护
使用精确流 : 是
废除音频缓冲 : 是
使用 C2 指针 : 否
读取偏移校正 : 0
读取 Lead-In 和 Lead-Out : 否
用静音填充抓取中丢失偏移的采样 : 是
去除首尾静音块 : 否
在 CRC 计算中使用了空样本 : 是
已用接口 : Win NT 及 2000 本地 Win32 接口
所用输出格式 : 内部 WAV 函数
样本格式 : 44.100 Hz;16 Bit;立体声
被抓轨 CD 的 TOC
音轨 | 开始 | 长度 | 起始扇区 | 结尾扇区
--------------------------------------------------
1 | 0:00.00 | 4:28.60 | 0 | 20159
2 | 4:28.60 | 3:02.50 | 20160 | 33859
3 | 7:31.35 | 3:43.17 | 33860 | 50601
4 | 11:14.52 | 5:21.73 | 50602 | 74749
5 | 16:36.50 | 4:51.17 | 74750 | 96591
6 | 21:27.67 | 7:00.08 | 96592 | 128099
7 | 28:28.00 | 4:50.00 | 128100 | 149849
8 | 33:18.00 | 3:45.27 | 149850 | 166751
9 | 37:03.27 | 4:57.35 | 166752 | 189061
10 | 42:00.62 | 7:29.40 | 189062 | 222776
范围状态及错误
已选择范围
文件名 L:\音乐分享\[风潮音乐]夜的精灵\未知艺术家 - 未知标题
峰值电平 100.0 %
范围质量 100.0 %
复制 CRC FD2E76EA
复制成功
没有错误发生
状态报告结尾

Содержание индексной карты (.CUE)

REM DISCID 790B9A0A
REM COMMENT "ExactAudioCopy v0.99pb5"
PERFORMER "Wu Judy Chin-tai"
TITLE "Moonlight Festival (夜的精灵)"
FILE "Wu Judy Chin-tai - Moonlight Festival"
TRACK 01 AUDIO
TITLE "向晚"
PERFORMER "Wu Judy Chin-tai"
ISRC TWC010101060
INDEX 01 00:00:00
TRACK 02 AUDIO
TITLE "夜的精灵"
PERFORMER "Wu Judy Chin-tai"
ISRC TWC010101070
INDEX 00 04:27:55
INDEX 01 04:28:60
TRACK 03 AUDIO
TITLE "蛙蛙快乐颂"
PERFORMER "Wu Judy Chin-tai"
ISRC TWC010101080
INDEX 01 07:31:35
TRACK 04 AUDIO
TITLE "乡间晚风"
PERFORMER "Wu Judy Chin-tai"
ISRC TWC010101090
INDEX 01 11:14:52
TRACK 05 AUDIO
TITLE "对牛弹琴"
PERFORMER "Wu Judy Chin-tai"
ISRC TWC010101100
INDEX 00 16:33:71
INDEX 01 16:36:50
TRACK 06 AUDIO
TITLE "星夜"
PERFORMER "Wu Judy Chin-tai"
ISRC TWC010101110
INDEX 01 21:27:67
TRACK 07 AUDIO
TITLE "小夜曲"
PERFORMER "Wu Judy Chin-tai"
ISRC TWC010101120
INDEX 01 28:28:00
TRACK 08 AUDIO
TITLE "秘密部落"
PERFORMER "Wu Judy Chin-tai"
ISRC TWC010101130
INDEX 01 33:18:00
TRACK 09 AUDIO
TITLE "银色山岗"
PERFORMER "Wu Judy Chin-tai"
ISRC TWC010101140
INDEX 01 37:03:27
TRACK 10 AUDIO
TITLE "梦"
PERFORMER "Wu Judy Chin-tai"
ISRC TWC010101150
INDEX 01 42:00:62
Яндекс.Метрика
Рейтинг@Mail.ru