Черный пес / Black Dog (Кевин Хукс / Kevin Hooks) [1998 г., Боевик, триллер, драма, HDTVRip-AVC] AVO (Гаврилов, Живов) + Sub (Rus)

 

Создавать темы 15-Май-2015 16:24

Черный пес / Black Dog
«The only way to stay alive is to keep moving»
- Год выпуска: 1998
Производство: США, Германия, Франция, Япония, Великобритания
Жанр: Боевик, триллер, драма
Продолжительность: 01:28:33
Перевод: Авторский (одноголосый, закадровый) Гаврилов, Живов
Субтитры: Отключаемые (Text/UTF-8)
Язык субтитров: русский
Режиссер: Кевин Хукс / Kevin Hooks
В ролях: Патрик Суэйзи, Мит Лоаф, Рэнди Трэвис, Гэбриел Коссес, Брайан Винсент, Грэхэм Бекел, Бренда Стронг, Расти Де Уиз, Кирилл О`Рейли, Эрин Бродерик
Описание:
Водитель-дальнобойщик Джек Круз только что вышел из тюрьмы и сейчас находится под полицейским надзором. Однако, обстоятельства вынуждают его, ради благополучия жены и ребенка, согласиться на перевозку левого груза.
Без лишних вопросов он отправляется в путь. Очень скоро становиться ясно насколько опасным будет этот рейс. Но, преследуемый бандитами и ФБР, Джек твердо намерен доставить груз по назначению.
Качество видео: HDTVRip-AVC
Контейнер: MKV
Видео кодек: AVC / H.264
Видео: 1024x568 / 3369 kbps / 23,976 fps / 16:9 / High Profile 4.1
Аудио#1: 48 kHz, AC3 Dolby Digital, 3/2 (L,C,R,l,r) + LFE ch, ~448 kbps avg - Гаврилов
Аудио#2: 48 kHz, AC3 Dolby Digital, 3/2 (L,C,R,l,r) + LFE ch, ~448 kbps avg - Живов

Media Info

Формат : Matroska
Версия формата : Version 4 / Version 2
Размер файла : 2,64 Гбайт
Продолжительность : 1 ч. 28 м.
Общий поток : 4267 Кбит/сек
Название фильма : Black Dog.1998.HDTVRip-AVC.Gavrilov.Zhivov -=anton966=-
Дата кодирования : UTC 2015-05-15 03:43:06
Программа кодирования : mkvmerge v7.9.0 ('Birds') 64bit
Библиотека кодирования : libebml v1.3.1 + libmatroska v1.4.2
DURATION : 01:20:55.909000000
NUMBER_OF_FRAMES : 815
NUMBER_OF_BYTES : 42798
_STATISTICS_WRITING_APP : mkvmerge v7.9.0 ('Birds') 64bit
_STATISTICS_WRITING_DATE_UTC : 2015-05-15 03:43:06
_STATISTICS_TAGS : BPS DURATION NUMBER_OF_FRAMES NUMBER_OF_BYTES
Видео
Идентификатор : 1
Формат : AVC
Формат/Информация : Advanced Video Codec
Профиль формата : [email protected]
Параметр CABAC формата : Да
Параметр ReFrames формата : 8 кадров
Идентификатор кодека : V_MPEG4/ISO/AVC
Продолжительность : 1 ч. 28 м.
Битрейт : 3286 Кбит/сек
Ширина : 1024 пикселя
Высота : 568 пикселей
Соотношение сторон : 16:9
Режим частоты кадров : Постоянный
Частота кадров : 23,976 кадра/сек
Цветовое пространство : YUV
Субдискретизация насыщенности : 4:2:0
Битовая глубина : 8 бит
Тип развёртки : Прогрессивная
Бит/(Пиксели*Кадры) : 0.236
Размер потока : 2,03 Гбайт (77%)
Заголовок : Black Dog.1998.HDTVRip-AVC
Библиотека кодирования : x264 core 146 r2538kMod 121396c
Настройки программы : cabac=1 / ref=8 / deblock=1:-2:-2 / analyse=0x3:0x113 / me=umh / subme=11 / psy=1 / fade_compensate=0.00 / psy_rd=1.00:0.20 / mixed_ref=1 / me_range=32 / chroma_me=1 / trellis=2 / 8x8dct=1 / cqm=0 / deadzone=21,11 / fast_pskip=1 / chroma_qp_offset=-3 / threads=12 / lookahead_threads=3 / sliced_threads=0 / nr=0 / decimate=1 / interlaced=0 / bluray_compat=0 / constrained_intra=0 / fgo=0 / bframes=10 / b_pyramid=2 / b_adapt=2 / b_bias=0 / direct=1 / weightb=1 / open_gop=0 / weightp=2 / keyint=250 / keyint_min=23 / scenecut=40 / intra_refresh=0 / rc_lookahead=50 / rc=crf / mbtree=0 / crf=19.1000 / qcomp=0.60 / qpmin=0 / qpmax=69 / qpstep=4 / vbv_maxrate=40000 / vbv_bufsize=62500 / crf_max=0.0 / nal_hrd=none / filler=0 / ip_ratio=1.40 / pb_ratio=1.30 / aq=1:1.00
Язык : English
Default : Да
Forced : Нет
Цветовой диапазон : Limited
Основные цвета : BT.709
Характеристики трансфера : BT.709
Коэффициенты матрицы : BT.709
DURATION : 01:28:33.517000000
NUMBER_OF_FRAMES : 127397
NUMBER_OF_BYTES : 2237373921
_STATISTICS_WRITING_APP : mkvmerge v7.9.0 ('Birds') 64bit
_STATISTICS_WRITING_DATE_UTC : 2015-05-15 03:43:06
_STATISTICS_TAGS : BPS DURATION NUMBER_OF_FRAMES NUMBER_OF_BYTES
Аудио #1
Идентификатор : 2
Формат : AC-3
Формат/Информация : Audio Coding 3
Расширение режима : CM (complete main)
Параметр Endianness формата : Big
Идентификатор кодека : A_AC3
Продолжительность : 1 ч. 28 м.
Вид битрейта : Постоянный
Битрейт : 448 Кбит/сек
Каналы : 6 каналов
Расположение каналов : Front: L C R, Side: L R, LFE
Частота : 48,0 КГц
Битовая глубина : 16 бит
Метод сжатия : С потерями
Размер потока : 284 Мбайт (10%)
Заголовок : Gavrilov
Язык : Russian
Default : Да
Forced : Нет
Аудио #2
Идентификатор : 3
Формат : AC-3
Формат/Информация : Audio Coding 3
Расширение режима : CM (complete main)
Параметр Endianness формата : Big
Идентификатор кодека : A_AC3
Продолжительность : 1 ч. 28 м.
Вид битрейта : Постоянный
Битрейт : 448 Кбит/сек
Каналы : 6 каналов
Расположение каналов : Front: L C R, Side: L R, LFE
Частота : 48,0 КГц
Битовая глубина : 16 бит
Метод сжатия : С потерями
Размер потока : 284 Мбайт (10%)
Заголовок : Zhivov
Язык : Russian
Default : Нет
Forced : Нет
Текст
Идентификатор : 4
Формат : UTF-8
Идентификатор кодека : S_TEXT/UTF8
Идентификатор кодека/Информация : UTF-8 Plain Text
Язык : Russian
Default : Нет
Forced : Нет

log x.264

avs [info]: 1024x568p 1:1 @ 24000/1001 fps (cfr)
x264 [info]: using SAR=1/1
x264 [info]: using cpu capabilities: MMX2 SSE2Fast SSSE3 SSE4.2 AVX XOP FMA4 FMA3 LZCNT BMI1
x264 [info]: profile High, level 4.1
x264 [info]: cabac=1 ref=8 deblock=1:-2:-2 analyse=0x3:0x113 me=umh subme=11 psy=1 fade_compensate=0.00 psy_rd=1.00:0.20 mixed_ref=1 me_range=32 chroma_me=1 trellis=2 8x8dct=1 cqm=0 deadzone=21,11 fast_pskip=1 chroma_qp_offset=-3 threads=12 lookahead_threads=3 sliced_threads=0 nr=0 decimate=1 interlaced=0 bluray_compat=0 constrained_intra=0 fgo=0 bframes=10 b_pyramid=2 b_adapt=2 b_bias=0 direct=1 weightb=1 open_gop=0 weightp=2 keyint=250 keyint_min=23 scenecut=40 intra_refresh=0 rc_lookahead=50 rc=crf mbtree=0 crf=19.1000 qcomp=0.60 qpmin=0 qpmax=69 qpstep=4 vbv_maxrate=40000 vbv_bufsize=62500 crf_max=0.0 nal_hrd=none filler=0 ip_ratio=1.40 pb_ratio=1.30 aq=1:1.00
x264 [info]: frame I:1011 Avg QP:18.45 size: 61334
x264 [info]: frame P:31875 Avg QP:19.72 size: 32138
x264 [info]: frame B:94511 Avg QP:22.18 size: 12178
x264 [info]: consecutive B-frames: 3.2% 5.6% 10.3% 30.3% 16.6% 28.1% 3.5% 1.2% 0.7% 0.2% 0.2%
x264 [info]: mb I I16..4: 6.8% 73.5% 19.7%
x264 [info]: mb P I16..4: 2.0% 27.3% 3.2% P16..4: 25.6% 28.9% 8.0% 0.0% 0.0% skip: 4.9%
x264 [info]: mb B I16..4: 0.3% 3.2% 0.3% B16..8: 35.1% 22.4% 3.5% direct: 8.0% skip:27.2% L0:39.3% L1:46.1% BI:14.5%
x264 [info]: 8x8 transform intra:83.5% inter:59.4%
x264 [info]: coded y,uvDC,uvAC intra: 90.8% 83.4% 53.6% inter: 32.5% 22.5% 2.4%
x264 [info]: i16 v,h,dc,p: 20% 17% 11% 53%
x264 [info]: i8 v,h,dc,ddl,ddr,vr,hd,vl,hu: 12% 10% 9% 9% 12% 12% 12% 11% 14%
x264 [info]: i4 v,h,dc,ddl,ddr,vr,hd,vl,hu: 18% 11% 7% 7% 12% 12% 11% 9% 11%
x264 [info]: i8c dc,h,v,p: 34% 30% 19% 17%
x264 [info]: Weighted P-Frames: Y:6.8% UV:3.9%
x264 [info]: ref P L0: 47.8% 12.9% 18.3% 6.2% 5.3% 3.6% 3.4% 2.1% 0.4% 0.0%
x264 [info]: ref B L0: 83.5% 8.6% 3.5% 1.9% 1.4% 0.8% 0.4%
x264 [info]: ref B L1: 95.8% 4.2%
x264 [info]: kb/s:3368.58

Скриншоты

Яндекс.Метрика
Рейтинг@Mail.ru