[ Сегодня на трекере фрилич! Идет свободное скачивание без начисления Download ]

BBC: Жизнь и смерть в Помпеях и Геркулануме / BBC - The Other Pompeii: Life and Death in Herculaneum (2013)[ документальный HDTVRip] от R.G.RealMT | P1

 

Создавать темы 04-Дек-2013 07:29

Год выпуска: 2013
Страна: Великобритания
Студия: Brave New Media
Жанр: документальный
Продолжительность: 00:59:00
Перевод: Одноголосый закадровый - SDI Media
Субтитры: английские
Режиссер: Пол Илстон / Paul Elston
Описание: Уже два с половиной столетия Геркуланум и Помпеи захватывают всеобщее воображение. Профессор Эндрю Уоллос-Хедрилл последние 30 лет исследует остатки двух самых известных и восхитительных археологических объектов в мире. Он пытается приподнять завесу тайны и на основе последних научных данных представить, какой была жизнь в этих римских городах, прежде чем они были разрушены чудовищным извержением Везувия.
Качество: HDTVRip
Формат:AVI
Видео кодек: XviD
Аудио кодек: AC-3
Видео: 16:9, 2000 Кбит/сек, 720x400, 25,000 кадров/сек
Аудио: AC-3, 2 канала, 128 Кбит/сек, 48,0 КГц

MediaInfo

Общее
Полное имя : D:BBC.The.Other.Pompeii.Life.and.Death.in.Herculaneum.[R.G.RealMT].avi
Формат : AVI
Формат/Информация : Audio Video Interleave
Размер файла : 902 Мбайт
Продолжительность : 59 м.
Общий поток : 2137 Кбит/сек
Программа кодирования : VirtualDubMod 1.5.10.3 | www.virtualdub-fr.org || (build 2550/release)
Библиотека кодирования : VirtualDubMod build 2550/release
Видео
Идентификатор : 0
Формат : MPEG-4 Visual
Профиль формата : Advanced [email protected]
Параметр BVOP формата : 2
Параметр QPel формата : Нет
Параметр GMC формата : Без точки перехода
Параметр матрицы формата : Default (H.263)
Режим смешивания : Сжатый битовый поток
Идентификатор кодека : XVID
Идентификатор кодека/Подсказка : XviD
Продолжительность : 59 м.
Битрейт : 2000 Кбит/сек
Ширина : 720 пикселей
Высота : 400 пикселей
Соотношение сторон : 16:9
Частота кадров : 25,000 кадров/сек
Цветовое пространство : YUV
Субдискретизация насыщенности : 4:2:0
Битовая глубина : 8 бит
Тип развёртки : Прогрессивная
Метод сжатия : С потерями
Бит/(Пиксели*Кадры) : 0.278
Размер потока : 844 Мбайт (94%)
Библиотека кодирования : XviD 1.2.1 (UTC 2008-12-04)
Аудио
Идентификатор : 1
Формат : AC-3
Формат/Информация : Audio Coding 3
Расширение режима : CM (complete main)
Параметр Endianness формата : Big
Идентификатор кодека : 2000
Продолжительность : 59 м.
Вид битрейта : Постоянный
Битрейт : 128 Кбит/сек
Каналы : 2 канала
Расположение каналов : Front: L R
Частота : 48,0 КГц
Битовая глубина : 16 бит
Метод сжатия : С потерями
Размер потока : 54,0 Мбайт (6%)
Выравнивание : Разделение по промежуткам
Продолжительность промежутка : 40 мс. (1,00 видеокадр)
Время предзагрузки промежутка : 500 мс.

Скриншоты

Яндекс.Метрика
Рейтинг@Mail.ru