(Disco, Synth-pop) Secret Service - Disco Collection - 2002, FLAC (image+.cue), lossless

 

Создавать темы 05-Окт-2013 11:40

--Secret Service - Disco Collection-- Жанр: Disco, Synth-pop
Страна-производитель диска: Россия
Год издания: 2002
Номер по каталогу: WB32589CD
Страна: Швеция
Аудиокодек: FLAC (*.flac)
Тип рипа: image+.cue
Битрейт аудио: lossless
Продолжительность: 01:11:41
Наличие сканов в содержимом раздачи: да
Треклист:

01. Oh Susie (3:40)
02. Cry Softly (Time Is Mourning) (3:31)
03. Ten O'Clock Postman (3:38)
04. Let Us Dance Just A Little Bit More (4:25)
05. Flash In The Night (3:45)
06. Fire Into Ice (3:52)
07. If I Try (4:08)
08. Jupiter Sign (4:51)
09. Night City (3:34)
10. Like A Morning Song (3:29)
11. L.A. Goodbye (3:18)
12. When The Night Closes In (4:01)
13. Ye Si Ca (3:09)
14. I'm So, I'm So (I'm So In Love With You) (4:05)
15. Jo-Anne, Jo-Anne (3:41)
16. Тне Way You Are (Duet With Agnetha Faltskog) (4:10)
17. Dancing In Madness (3:05)
18. Oh Susie (Antiloop Reconstruction Mix) (3:39)
19. Flash In The Night (Antiloop Reconstruction Mix) (3:38)

Отчёт ЕАС

Exact Audio Copy V1.0 beta 3 from 29. August 2011
Отчёт EAC об извлечении, выполненном 20. ноября 2012, 20:15
Secret Service / Disco Collection
Дисковод: ASUS DRW-1814BLT Adapter: 2 ID: 0
Режим чтения : Достоверность
Использование точного потока : Да
Отключение кэша аудио : Да
Использование указателей C2 : Нет
Коррекция смещения при чтении : 6
Способность читать области Lead-in и Lead-out : Нет
Заполнение пропущенных сэмплов тишиной : Да
Удаление блоков с тишиной в начале и конце : Нет
При вычислениях CRC использовались нулевые сэмплы : Да
Интерфейс : Встроенный Win32-интерфейс для Win NT/2000
Выходной формат : Внутренние WAV-операции
Формат сэмплов : 44.100 Гц; 16 бит; стерео
TOC извлечённого CD
Трек | Старт | Длительность | Начальный сектор | Конечный сектор
---------------------------------------------------------------------
1 | 0:00.00 | 3:39.59 | 0 | 16483
2 | 3:39.59 | 3:31.17 | 16484 | 32325
3 | 7:11.01 | 3:38.24 | 32326 | 48699
4 | 10:49.25 | 4:25.23 | 48700 | 68597
5 | 15:14.48 | 3:45.29 | 68598 | 85501
6 | 19:00.02 | 3:52.23 | 85502 | 102924
7 | 22:52.25 | 4:08.12 | 102925 | 121536
8 | 27:00.37 | 4:51.30 | 121537 | 143391
9 | 31:51.67 | 3:33.68 | 143392 | 159434
10 | 35:25.60 | 3:29.17 | 159435 | 175126
11 | 38:55.02 | 3:17.70 | 175127 | 189971
12 | 42:12.72 | 4:01.05 | 189972 | 208051
13 | 46:14.02 | 3:08.51 | 208052 | 222202
14 | 49:22.53 | 4:04.57 | 222203 | 240559
15 | 53:27.35 | 3:41.22 | 240560 | 257156
16 | 57:08.57 | 4:10.15 | 257157 | 275921
17 | 61:18.72 | 3:05.14 | 275922 | 289810
18 | 64:24.11 | 3:39.19 | 289811 | 306254
19 | 68:03.30 | 3:37.50 | 306255 | 322579
Характеристики диапазона извлечения и сообщения об ошибках
Выбранный диапазон
Имя файла C:\Secret Service - Disco Collection\Secret Service - Disco Collection.wav
Пиковый уровень 100.0 %
Скорость извлечения 7.7 X
Качество диапазона 99.9 %
CRC теста 6D363DA5
CRC копии 6D363DA5
Копирование... OK
Ошибок не произошло
AccurateRip: сводка
Трек 1 : извлечено точно (доверие 1) [3D358DD3] (AR v2)
Трек 2 : извлечено точно (доверие 1) [79F90074] (AR v2)
Трек 3 : извлечено точно (доверие 1) [6298020A] (AR v2)
Трек 4 : извлечено точно (доверие 1) [3A615874] (AR v2)
Трек 5 : извлечено точно (доверие 1) [6241D0ED] (AR v2)
Трек 6 : извлечено точно (доверие 1) [D62AE4AF] (AR v2)
Трек 7 : извлечено точно (доверие 1) [5A30D6A7] (AR v2)
Трек 8 : извлечено точно (доверие 1) [BF6B9B9D] (AR v2)
Трек 9 : извлечено точно (доверие 1) [24D3A771] (AR v2)
Трек 10 : извлечено точно (доверие 1) [F3BFD113] (AR v2)
Трек 11 : извлечено точно (доверие 1) [97F3388B] (AR v2)
Трек 12 : извлечено точно (доверие 1) [59D4C2C0] (AR v2)
Трек 13 : извлечено точно (доверие 1) [92763F6C] (AR v2)
Трек 14 : извлечено точно (доверие 1) [AD224D77] (AR v2)
Трек 15 : извлечено точно (доверие 1) [35FC82D5] (AR v2)
Трек 16 : извлечено точно (доверие 1) [EDF5EC26] (AR v2)
Трек 17 : извлечено точно (доверие 1) [85F4E4D1] (AR v2)
Трек 18 : извлечено точно (доверие 1) [47BDBCAB] (AR v2)
Трек 19 : извлечено точно (доверие 1) [A2338A27] (AR v2)
Все треки извлечены точно
Конец отчёта
==== Контрольная сумма отчёта 73026A5F7E44083A5F60C055FB11477BD27AA5436FD90737B936EDC71230D794 ====
Яндекс.Метрика
Рейтинг@Mail.ru