Индюки: Назад в будущее / Free Birds (Джимми Хейуорд / Jimmy Hayward) [2013 г., мультфильм, комедия, DVDRip] [Лицензия]

 

Создавать темы 03-Дек-2013 20:55

-Индюки: Назад в будущее-- Производство: США
Режиссер: Джимми Хейуорд / Jimmy Hayward
Жанр: мультфильм, комедия
Год выпуска: 2013 г.
Продолжительность: 01:21:45
Мировая премьера: 26 сентября 2013
Российская премьера: 31 октября 2013, «Парадиз»
Перевод: Профессиональный (полное дублирование)
Роли озвучивали: Оуэн Уилсон, Вуди Харрельсон, Эми Полер, Джордж Такей, Колм Мини, Кит Дэвид, Дэн Фоглер, Джимми Хейуорд, Кейтлин Мехер, Карлос Аласраки-Описание: Индюки Реджи и Джейк находят машину времени, чтобы отправиться на триста лет назад, дабы раз и навсегда вычеркнуть индейку из праздничного меню.-Сэмпл КиноПоиск
Качество видео: DVDRip
Контейнер: AVI
Видео кодек: XviD
Аудио кодек: AC3
Видео: 720x384 (1.875:1), 25.000 fps, XviD, 1 850 Kbps
Аудио: AC3, 384 Kbps, 48.0 KHz, 6 ch
Cубтитры: отсутствуют

Media Info

Format : AVI
Format/Info : Audio Video Interleave
File size : 1.37 GiB
Duration : 1h 27mn
Overall bit rate : 2 244 Kbps
Writing application : VirtualDubMod 1.5.10.3 | www.virtualdub-fr.org || (build 2550/release)
Writing library : VirtualDubMod build 2550/release
Video
ID : 0
Format : MPEG-4 Visual
Format profile : Advanced [email protected]
Format settings, BVOP : 2
Format settings, QPel : No
Format settings, GMC : No warppoints
Format settings, Matrix : Custom
Codec ID : XVID
Codec ID/Hint : XviD
Duration : 1h 27mn
Bit rate : 1 850 Kbps
Width : 720 pixels
Height : 384 pixels
Display aspect ratio : 1.85:1
Frame rate : 25.000 fps
Color space : YUV
Chroma subsampling : 4:2:0
Bit depth : 8 bits
Scan type : Progressive
Compression mode : Lossy
Bits/(Pixel*Frame) : 0.268
Stream size : 1.13 GiB (82%)
Writing library : XviD 1.2.1 (UTC 2008-12-04)
Audio
ID : 1
Format : AC-3
Format/Info : Audio Coding 3
Mode extension : CM (complete main)
Format settings, Endianness : Big
Codec ID : 2000
Duration : 1h 27mn
Bit rate mode : Constant
Bit rate : 384 Kbps
Channel count : 6 channels
Channel positions : Front: L C R, Side: L R, LFE
Sampling rate : 48.0 KHz
Bit depth : 16 bits
Compression mode : Lossy
Stream size : 240 MiB (17%)
Alignment : Split accross interleaves
Interleave, duration : 40 ms (1.00 video frame)
Interleave, preload duration : 500 ms

Скриншоты

Знаете ли Вы, что...

· Чтобы поближе познакомиться с особенностями психологии и физиологии главных героев, создатели проекта — художники, аниматоры и дизайнеры — посетили индюшачью ферму в Восточном Техасе.
· Для того, чтобы разработать пластику персонажей, специалисты отдела моделирования купили замороженную индейку в ближайшем супермаркете, реконструировали птицу, а потом провели ряд компьютерных тестов по движению.
· Чтобы как можно более точно передать движения перьевого покрова главных героев, команда разработала собственную программу под названием Avian (avian — англ. птичий).

Создавать темы 04-Дек-2013 04:53 (спустя 7 часов)

Топик был перенесен из форума Зарубежные Мультфильмы (HD) в форум Зарубежные Мультфильмы (HD*Rip/LQ, DVDRip, SATRip, VHSRip)
[email protected]
Яндекс.Метрика
Рейтинг@Mail.ru