[ Сегодня на трекере фрилич! Идет свободное скачивание без начисления Download ]

Второй шанс / Danny Collins (2015,драма, комедия, музыка) WEB-DL 720p

 

Создавать темы 12-Май-2015 20:34

-Второй шанс / Danny Collins (2015) -Информация о фильме
Название: Второй шанс
Оригинальное название: Danny Collins
Год выхода: 2015
Жанр: драма, комедия, музыка
Режиссер: Дэн Фогельман
В ролях: Аль Пачино, Аннетт Бенинг, Дженнифер Гарнер, Бобби Каннавале, Кристофер Пламмер, Мелисса Бенойст, Ник Офферман, Джош Пек, Арти Манн, Катарина Час--Oписание: Когда-то песни Дэнни Коллинза обожал весь мир. Однако уже много лет он ничего не пишет, почивая на лаврах былой славы. Но однажды музыканта находит адресованное ему много лет назад письмо от ...Джона Леннона. И это переворачивает всю его жизнь.-- --Выпущено: США / Big Indie Pictures, ShivHans Pictures
Продолжительность: 01:46:27
Озвучивание: Дублированное [iTunes]--Файл
Формат: MKV
Качество: WEB-DL 720p
Видео: 3894 kb/s, 1280x532
Аудио: AC3, 384 kb/s (6 ch)
Размер: 3.25 GB---

Media Info

Общее
Уникальный идентификатор : 225922985330826987654782643421888479275 (0xA9F72F2B7E322744B146D98369CD802B)
Полное имя : Bt0P0j.shaHC.2015.D.WEB-DL.720p.mkv
Формат : Matroska
Версия формата : Version 4 / Version 2
Размер файла : 3,25 Гбайт
Продолжительность : 1 ч. 46 м.
Общий поток : 4365 Кбит/сек
Дата кодирования : UTC 2015-05-12 14:59:25
Программа кодирования : mkvmerge v6.9.1 ('Blue Panther') 64bit built on Apr 18 2014 18:23:38
Библиотека кодирования : libebml v1.3.0 + libmatroska v1.4.1
Видео
Идентификатор : 1
Формат : AVC
Формат/Информация : Advanced Video Codec
Профиль формата : [email protected]
Параметр CABAC формата : Нет
Параметр ReFrames формата : 2 кадра
Идентификатор кодека : V_MPEG4/ISO/AVC
Продолжительность : 1 ч. 46 м.
Битрейт : 3894 Кбит/сек
Ширина : 1280 пикселей
Высота : 532 пикселя
Соотношение сторон : 2,40:1
Режим частоты кадров : Постоянный
Частота кадров : 24,000 кадра/сек
Цветовое пространство : YUV
Субдискретизация насыщенности : 4:2:0
Битовая глубина : 8 бит
Тип развёртки : Прогрессивная
Бит/(Пиксели*Кадры) : 0.238
Размер потока : 2,90 Гбайт (89%)
Язык : English
Default : Да
Forced : Нет
Цветовой диапазон : Limited
Основные цвета : BT.709
Характеристики трансфера : BT.709
Коэффициенты матрицы : BT.709
Аудио
Идентификатор : 2
Формат : AC-3
Формат/Информация : Audio Coding 3
Расширение режима : CM (complete main)
Параметр Endianness формата : Big
Идентификатор кодека : A_AC3
Продолжительность : 1 ч. 46 м.
Вид битрейта : Постоянный
Битрейт : 384 Кбит/сек
Каналы : 6 каналов
Расположение каналов : Front: L C R, Side: L R, LFE
Частота : 48,0 КГц
Битовая глубина : 16 бит
Метод сжатия : С потерями
Размер потока : 292 Мбайт (9%)
Язык : Russian
Default : Да
Forced : Нет
Меню
00:00:00.000 : en:Глава 1
00:03:26.000 : en:Глава 2
00:08:39.000 : en:Глава 3
00:16:29.000 : en:Глава 4
00:23:11.000 : en:Глава 5
00:27:33.000 : en:Глава 6
00:32:57.000 : en:Глава 7
00:39:42.000 : en:Глава 8
00:43:48.000 : en:Глава 9
00:48:04.000 : en:Глава 10
00:51:57.000 : en:Глава 11
00:56:32.000 : en:Глава 12
01:02:14.000 : en:Глава 13
01:06:50.000 : en:Глава 14
01:11:27.000 : en:Глава 15
01:16:24.000 : en:Глава 16
01:23:03.000 : en:Глава 17
01:30:05.000 : en:Глава 18
01:35:57.000 : en:Глава 19
--- ------
Яндекс.Метрика
Рейтинг@Mail.ru