[ Сегодня на трекере фрилич! Идет свободное скачивание без начисления Download ]

Не шутите с Зоханом! / You Don't Mess with the Zohan [Theatrical cut] (Дэннис Дуган / Dennis Dugan) [2008 г., боевик, комедия, BDRip, 720p] Dub [Rus, Ukr] (Лицензия) + Original (Eng) + Sub (Rus, Ukr, Eng)

 

Создавать темы 12-Май-2015 17:55

-Не шутите с Зоханом! / You Don't Mess with the Zohan- Производство: США, Happy Madison, Relativity Media
Год выпуска: 2008 г.
Жанр: боевик, комедия
Продолжительность: 01:52:47
Мировая премьера: 6 июня 2008
Российская премьера: 19 июня 2008, «BVSPR»
Дата выхода DVD: 31 июля 2008, «Columbia/Sony»
Дата выхода Blu-Ray: 5 марта 2009, «Columbia/Sony»-Перевод: Профессиональный (полное дублирование) [Лицензия] (Rus, Ukr)
Оригинальный аудиопоток: английский-Режиссер: Дэннис Дуган / Dennis Dugan
В ролях: Адам Сэндлер, Джон Туртурро, Эммануэль Шрики, Ник Свардсон, Лэйни Кэзан, Идо Муссари, Роб Шнайдер, Дэйв Мэтьюз, Майкл Баффер, Шарлотта Рэй-Описание: Зохан — израильский коммандос, агент Моссада и антитеррорист — во время захвата известного мирового преступника инсценирует собственную гибель, дабы завязать с героическим прошлым и осуществить свою давнюю мечту: стать стилистом в Нью-Йорке. Вооружившись ножницами и желанным руководством, он решает начать свою карьеру в небольшом салоне.
Слава о повышенном внимании к деталям и оказании особого сервиса быстро распространяется среди представительниц прекрасного пола, и желающих оказаться в его кресле становится пруд пруди. Но внезапно его узнают и над романтически настроенным Зоханам нависает угроза потерять не только полюбившуюся карьеру, но на этот раз и собственную жизнь.-СЕМПЛ -Качество видео: BDRip
Контейнер: MKV
Стандарт разрешения: 720p
Видео кодек: MPEG4 AVC
Аудио кодек: AC3 / DTS
Видео: 1280x694 (1.85:1), 23.976 fps, 9 010 Kbps, 0.423 bit/pix
Аудио: Russian: 48 kHz, AC3, 3/2 (L,C,R,l,r) + LFE ch, ~448.00 kbps avg
Аудио #2: Ukrainian: 48 kHz, AC3, 3/2 (L,C,R,l,r) + LFE ch, ~448.00 kbps avg
Аудио #3: English: 48 kHz, DTS, 3/2 (L,C,R,l,r) + LFE ch, ~1 510.00 kbps avg
Cубтитры: Русские (полные, форсированные), украинские (форсированные), английские (полные, полные SDH)
Формат субтитров: softsub (SRT)-

Media Info

General
Unique ID : 189170042717299273638935626942775139675 (0x8E50D33237FA0668B3001780353D9D5B)
Complete name : F:\Фильмы\You.Don't.Mess.with.the.Zohan.2008.720p.BluRay.Rus.Ukr.Eng.mkv
Format : Matroska
Format version : Version 2
File size : 8.98 GiB
Duration : 1h 52mn
Overall bit rate : 11.4 Mbps
Encoded date : UTC 2014-11-30 17:11:56
Writing application : mkvmerge v5.2.0 ('I can't explain') built on Dec 18 2011 18:12:03
Writing library : libebml v1.2.3 + libmatroska v1.3.0
Video
ID : 1
Format : AVC
Format/Info : Advanced Video Codec
Format profile : [email protected]
Format settings, CABAC : Yes
Format settings, ReFrames : 7 frames
Codec ID : V_MPEG4/ISO/AVC
Duration : 1h 52mn
Bit rate : 9 010 Kbps
Width : 1 280 pixels
Height : 694 pixels
Display aspect ratio : 1.85:1
Frame rate mode : Constant
Frame rate : 23.976 fps
Color space : YUV
Chroma subsampling : 4:2:0
Bit depth : 8 bits
Scan type : Progressive
Bits/(Pixel*Frame) : 0.423
Stream size : 6.91 GiB (77%)
Writing library : x264 core 142 r2479kMod dd79a61
Encoding settings : cabac=1 / ref=8 / deblock=1:-3:-2 / analyse=0x3:0x113 / me=umh / subme=11 / psy=1 / fade_compensate=0.00 / psy_rd=1.06:0.00 / mixed_ref=1 / me_range=32 / chroma_me=1 / trellis=2 / 8x8dct=1 / cqm=0 / deadzone=21,11 / fast_pskip=1 / chroma_qp_offset=-4 / threads=4 / lookahead_threads=1 / sliced_threads=0 / nr=0 / decimate=1 / interlaced=0 / bluray_compat=0 / constrained_intra=0 / fgo=0 / bframes=9 / b_pyramid=1 / b_adapt=2 / b_bias=0 / direct=3 / weightb=1 / open_gop=0 / weightp=2 / keyint=230 / keyint_min=23 / scenecut=40 / intra_refresh=0 / rc_lookahead=40 / rc=2pass / mbtree=0 / bitrate=9010 / ratetol=1.0 / qcomp=0.76 / qpmin=0 / qpmax=69 / qpstep=4 / cplxblur=20.0 / qblur=0.5 / vbv_maxrate=50000 / vbv_bufsize=62500 / nal_hrd=none / filler=0 / ip_ratio=1.40 / pb_ratio=1.30 / aq=1:0.90
Language : English
Default : Yes
Forced : No
Audio #1
ID : 2
Format : AC-3
Format/Info : Audio Coding 3
Mode extension : CM (complete main)
Format settings, Endianness : Big
Codec ID : A_AC3
Duration : 1h 52mn
Bit rate mode : Constant
Bit rate : 448 Kbps
Channel(s) : 6 channels
Channel positions : Front: L C R, Side: L R, LFE
Sampling rate : 48.0 KHz
Compression mode : Lossy
Stream size : 361 MiB (4%)
Title : АС3 5.1 @ 448 kbps - Dub
Language : Russian
Default : No
Forced : No
Audio #2
ID : 3
Format : AC-3
Format/Info : Audio Coding 3
Mode extension : CM (complete main)
Format settings, Endianness : Big
Codec ID : A_AC3
Duration : 1h 52mn
Bit rate mode : Constant
Bit rate : 448 Kbps
Channel(s) : 6 channels
Channel positions : Front: L C R, Side: L R, LFE
Sampling rate : 48.0 KHz
Compression mode : Lossy
Stream size : 361 MiB (4%)
Title : АС3 5.1 @ 448 kbps - Dub
Language : Ukrainian
Default : No
Forced : No
Audio #3
ID : 4
Format : DTS
Format/Info : Digital Theater Systems
Mode : 16
Format settings, Endianness : Big
Codec ID : A_DTS
Duration : 1h 52mn
Bit rate mode : Constant
Bit rate : 1 510 Kbps
Channel(s) : 6 channels
Channel positions : Front: L C R, Side: L R, LFE
Sampling rate : 48.0 KHz
Bit depth : 16 bits
Compression mode : Lossy
Stream size : 1.19 GiB (13%)
Title : DTS 5.1 @ 1510 kbps - Original
Language : English
Default : No
Forced : No
Text #1
ID : 5
Format : UTF-8
Codec ID : S_TEXT/UTF8
Codec ID/Info : UTF-8 Plain Text
Title : Full
Language : Russian
Default : No
Forced : No
Text #2
ID : 6
Format : UTF-8
Codec ID : S_TEXT/UTF8
Codec ID/Info : UTF-8 Plain Text
Title : Forced
Language : Russian
Default : Yes
Forced : No
Text #3
ID : 7
Format : UTF-8
Codec ID : S_TEXT/UTF8
Codec ID/Info : UTF-8 Plain Text
Title : Forced
Language : Ukrainian
Default : No
Forced : No
Text #4
ID : 8
Format : UTF-8
Codec ID : S_TEXT/UTF8
Codec ID/Info : UTF-8 Plain Text
Title : Full
Language : English
Default : No
Forced : No
Text #5
ID : 9
Format : UTF-8
Codec ID : S_TEXT/UTF8
Codec ID/Info : UTF-8 Plain Text
Title : Full SDH
Language : English
Default : No
Forced : No
Menu
00:00:00.000 : :Chapter 01
00:07:48.092 : :Chapter 02
00:13:38.567 : :Chapter 03
00:19:05.102 : :Chapter 04
00:26:58.616 : :Chapter 05
00:32:23.232 : :Chapter 06
00:39:54.934 : :Chapter 07
00:45:55.669 : :Chapter 08
00:52:45.662 : :Chapter 09
01:00:40.470 : :Chapter 10
01:08:39.448 : :Chapter 11
01:16:13.485 : :Chapter 12
01:22:58.681 : :Chapter 13
01:28:34.225 : :Chapter 14
01:35:21.465 : :Chapter 15
01:44:36.269 : :Chapter 16
-

Скриншоты:

-
-
Яндекс.Метрика
Рейтинг@Mail.ru