Уильям Тёрнер / Mr. Turner (Майк Ли / Mike Leigh) [2014 г., драма, биография, история, HDRip] MVO (iTunes)

 

Создавать темы 12-Май-2015 17:02

-Уильям Тёрнер / Mr. Turner- Производство: Великобритания, Франция, Германия
Год выпуска: 2014 г.
Жанр: драма, биография, история
Продолжительность: 02:30:02
Мировая премьера: 15 мая 2014-Перевод: Профессиональный (многоголосный, закадровый) [iTunes]-Режиссер: Майк Ли / Mike Leigh
В ролях: Тимоти Сполл, Пол Джессон, Дороти Эткинсон, Мэрион Бэйли, Карл Джонсон, Рут Шин, Сэнди Фостер, Эми Доусон, Лесли Мэнвилл, Мартин Сэвадж-Описание: История жизни и творчества британского живописца Уильяма Тёрнера.-Семпл -Качество видео: HDRip
Контейнер: AVI
Видео кодек: XviD
Аудио кодек: AC3
Видео: 720x304 (2.37:1), 23.976 fps, XviD build 50 ~1565 kbps avg, 0.30 bit/pixel
Аудио: Russian: 48 kHz, AC3 Dolby Digital, 3/2 (L,C,R,l,r) + LFE ch, ~384 kbps
Cубтитры: отсутствуют-

Media Info

General
Complete name : F:\Uiliam.Terner.2014.HDRip.2100MB.avi
Format : AVI
Format/Info : Audio Video Interleave
Format profile : OpenDML
File size : 2.05 GiB
Duration : 2h 30mn
Overall bit rate : 1 956 Kbps
Writing application : VirtualDubMod 1.5.10.3 | www.virtualdub-fr.org || (build 2550/release)
Writing library : VirtualDubMod build 2550/release
Video
ID : 0
Format : MPEG-4 Visual
Format profile : Advanced [email protected]
Format settings, BVOP : 2
Format settings, QPel : No
Format settings, GMC : No warppoints
Format settings, Matrix : Default (MPEG)
Codec ID : XVID
Codec ID/Hint : XviD
Duration : 2h 30mn
Bit rate : 1 560 Kbps
Width : 720 pixels
Height : 304 pixels
Display aspect ratio : 2.35:1
Frame rate : 23.976 fps
Color space : YUV
Chroma subsampling : 4:2:0
Bit depth : 8 bits
Scan type : Progressive
Compression mode : Lossy
Bits/(Pixel*Frame) : 0.297
Stream size : 1.63 GiB (80%)
Writing library : XviD 1.2.1 (UTC 2008-12-04)
Audio
ID : 1
Format : AC-3
Format/Info : Audio Coding 3
Mode extension : CM (complete main)
Format settings, Endianness : Big
Codec ID : 2000
Duration : 2h 30mn
Bit rate mode : Constant
Bit rate : 384 Kbps
Channel(s) : 6 channels
Channel positions : Front: L C R, Side: L R, LFE
Sampling rate : 48.0 KHz
Compression mode : Lossy
Stream size : 412 MiB (20%)
Alignment : Split accross interleaves
Interleave, duration : 42 ms (1.00 video frame)
Interleave, preload duratio : 500 ms
--

Скриншоты:

-
Яндекс.Метрика
Рейтинг@Mail.ru