Чудеса на виражах / TaleSpin [01-65 из 65] (1990-1991,Мультфильм, сериал) DVDRip-AVC | КПК

 

Создавать темы 11-Май-2015 20:55

-Чудеса на виражах / TaleSpin-Год выпуска: 1990 - 1991
Страна: США
Студия: Walt Disney Television Animation
Жанр: Мультфильм, сериал--Режиссёр: Ларри Лэтэм, Роберт Тейлор, Эдвард Л. Джертнер
В ролях: Джим Каммингс, Эд Гилберт, Сэлли Стразерс, Пэт Фрэли, Алан Робертс, Р.Дж. Уильямс, Чарльз Адлер, Жанна Майклс, Чак МакКанн, Фрэнк Уэлкер--Серий: 01 - 65 из 65
Продолжительность: ~ 00:22:00
Общая продолжительность: 26:17:45--Перевод: Профессиональный (дублированный)
Субтитры: Нет--Описание: «Чудеса на виражах» (TaleSpin) - получасовой диснеевский мультсериал, транслировавшийся в США по Disney Channel с сентября 1990 года.
Предварительный показ состоялся в мае 1990 года. Оригинальная концепция мультсериала является продолжением вводного полнометражного мультфильма «Plunder and Lightning».
Для показа по ТВ сей мультфильм был порезан на 4 части (серии) и значительно переделан:
-> удалено множество небольших сцен и фрагментов,
-> перерисованы и переозвучены альтернативные сцены,
-> переделана музыкальная составляющая и звуковые эффекты,
-> полностью удалена единственная музыкальная композиция мультфильма "Дом наш там, где сердце" ("Home is where the heart is")
и затем включён в рамки мультсериала, который часто можно было видеть как в виде одиночных получасовых серий, так и в составе двухчасовой программы «The Disney Afternoon».-- --Доп. информация: Бонусом добавлена "нулевая" серия - полнометражный вариант Plunder and Lightning - Грабёж и молнии. Качество - VHSRip--Тех.данные серии № 00:
Качество: VHSRip
Формат: MP4
Видео кодек: AVC
Аудио кодек: AAC
Видео: 512 kbps, 480x360 (4:3), 23.976 fps
Аудио: 128 kbps, 2 ch, 48,0 khz

Ми:

General
Complete name : D:ВидеоРип480 mp4Чудеса на виражах0 Plunder and Lightning.mp4
Format : MPEG-4
Format profile : Base Media
Codec ID : isom
File size : 418 MiB
Duration : 1h 30mn
Overall bit rate mode : Variable
Overall bit rate : 644 Kbps
Encoded date : UTC 2015-05-05 18:35:26
Tagged date : UTC 2015-05-05 18:35:26
Video
ID : 1
Format : AVC
Format/Info : Advanced Video Codec
Format profile : [email protected]
Format settings, CABAC : Yes
Format settings, ReFrames : 8 frames
Codec ID : avc1
Codec ID/Info : Advanced Video Coding
Duration : 1h 30mn
Bit rate : 512 Kbps
Maximum bit rate : 2 084 Kbps
Width : 480 pixels
Height : 360 pixels
Display aspect ratio : 4:3
Frame rate mode : Constant
Frame rate : 23.976 fps
Color space : YUV
Chroma subsampling : 4:2:0
Bit depth : 8 bits
Scan type : Progressive
Bits/(Pixel*Frame) : 0.124
Stream size : 332 MiB (79%)
Writing library : x264 core 130 r2273 b3065e6
Encoding settings : cabac=1 / ref=8 / deblock=1:-1:-1 / analyse=0x3:0x133 / me=umh / subme=7 / psy=1 / psy_rd=1.00:0.10 / mixed_ref=1 / me_range=16 / chroma_me=1 / trellis=2 / 8x8dct=1 / cqm=0 / deadzone=21,11 / fast_pskip=0 / chroma_qp_offset=-3 / threads=3 / lookahead_threads=1 / sliced_threads=0 / nr=0 / decimate=1 / interlaced=0 / bluray_compat=0 / constrained_intra=0 / bframes=3 / b_pyramid=2 / b_adapt=2 / b_bias=0 / direct=3 / weightb=1 / open_gop=0 / weightp=2 / keyint=250 / keyint_min=23 / scenecut=40 / intra_refresh=0 / rc_lookahead=50 / rc=2pass / mbtree=1 / bitrate=512 / ratetol=1.0 / qcomp=0.60 / qpmin=0 / qpmax=69 / qpstep=4 / cplxblur=20.0 / qblur=0.5 / ip_ratio=1.40 / aq=1:1.00
Encoded date : UTC 2015-05-05 18:35:26
Tagged date : UTC 2015-05-05 18:35:48
Audio
ID : 2
Format : AAC
Format/Info : Advanced Audio Codec
Format profile : LC
Codec ID : 40
Duration : 1h 30mn
Bit rate mode : Variable
Bit rate : 128 Kbps
Maximum bit rate : 138 Kbps
Channel(s) : 2 channels
Channel positions : Front: L R
Sampling rate : 48.0 KHz
Compression mode : Lossy
Stream size : 83.0 MiB (20%)
Encoded date : UTC 2015-05-05 18:35:43
Tagged date : UTC 2015-05-05 18:35:48
Тех.данные серий №№ 01 - 65:
Качество: DVDRip
Формат: MP4
Видео кодек: AVC
Аудио кодек: AAC
Видео: 512 kbps, 480x360 (4:3), 29.970 fps
Аудио: 128 kbps, 2 ch, 48,0 khz

Скриншоты:

Ми:

General
Complete name : D:ВидеоРип480 mp4Чудеса на виражах1 Plunder and Lightning (part-1).mp4
Format : MPEG-4
Format profile : Base Media
Codec ID : isom
File size : 105 MiB
Duration : 22mn 51s
Overall bit rate mode : Variable
Overall bit rate : 645 Kbps
Encoded date : UTC 2015-05-05 19:27:08
Tagged date : UTC 2015-05-05 19:27:08
Video
ID : 1
Format : AVC
Format/Info : Advanced Video Codec
Format profile : [email protected]
Format settings, CABAC : Yes
Format settings, ReFrames : 8 frames
Codec ID : avc1
Codec ID/Info : Advanced Video Coding
Duration : 22mn 51s
Bit rate : 512 Kbps
Maximum bit rate : 2 006 Kbps
Width : 480 pixels
Height : 360 pixels
Display aspect ratio : 4:3
Frame rate mode : Constant
Frame rate : 29.970 fps
Color space : YUV
Chroma subsampling : 4:2:0
Bit depth : 8 bits
Scan type : Progressive
Bits/(Pixel*Frame) : 0.099
Stream size : 83.7 MiB (79%)
Writing library : x264 core 130 r2273 b3065e6
Encoding settings : cabac=1 / ref=8 / deblock=1:-1:-1 / analyse=0x3:0x133 / me=umh / subme=7 / psy=1 / psy_rd=1.00:0.10 / mixed_ref=1 / me_range=16 / chroma_me=1 / trellis=2 / 8x8dct=1 / cqm=0 / deadzone=21,11 / fast_pskip=0 / chroma_qp_offset=-3 / threads=3 / lookahead_threads=1 / sliced_threads=0 / nr=0 / decimate=1 / interlaced=0 / bluray_compat=0 / constrained_intra=0 / bframes=3 / b_pyramid=2 / b_adapt=2 / b_bias=0 / direct=3 / weightb=1 / open_gop=0 / weightp=2 / keyint=250 / keyint_min=25 / scenecut=40 / intra_refresh=0 / rc_lookahead=50 / rc=2pass / mbtree=1 / bitrate=512 / ratetol=1.0 / qcomp=0.60 / qpmin=0 / qpmax=69 / qpstep=4 / cplxblur=20.0 / qblur=0.5 / ip_ratio=1.40 / aq=1:1.00
Encoded date : UTC 2015-05-05 19:27:08
Tagged date : UTC 2015-05-05 19:27:13
Audio
ID : 2
Format : AAC
Format/Info : Advanced Audio Codec
Format profile : LC
Codec ID : 40
Duration : 22mn 51s
Bit rate mode : Variable
Bit rate : 128 Kbps
Maximum bit rate : 132 Kbps
Channel(s) : 2 channels
Channel positions : Front: L R
Sampling rate : 48.0 KHz
Compression mode : Lossy
Stream size : 20.9 MiB (20%)
Encoded date : UTC 2015-05-05 19:27:13
Tagged date : UTC 2015-05-05 19:27:13

Список серий:

00. Plunder and Lightning - Грабёж и молнии
01. Plunder and Lightning (1) - Грабёж и молнии (1 серия)
02. Plunder and Lightning (2) - Грабёж и молнии (2 серия)
03. Plunder and Lightning (3) - Грабёж и молнии (3 серия)
04. Plunder and Lightning (4) - Грабёж и молнии (4 серия)
05. A Jolly Molly Christmas - С рождеством, Молли!
06. Bygones - Гости из прошлого
07. Flight of the Snow Duck - Полёт снежного утёнка
08. I Only Have Ice for You - Лёд и больше ничего
09. A Bad Reflection on You (1) - Просто у Вас глупый вид (1 серия)
10. A Bad Reflection on You (2) - Просто у Вас глупый вид (2 серия)
11. Time Waits for No Bear - Время не ждёт
12. A Touch of Glass - Не всё то золото, что блестит
13. It Came from Beneath the Sea Duck - Пираты и морское чудище
14. Stormy Weather - Штормовая погода
15. The Bigger They Are the Louder They Oink - Чем их больше, тем сильнее они хрюкают
16. For a Fuel Dollars More - Надбавка за заправку
17. The Idol Rich - Кому дороже идол?
18. Mommy for a Day - Трудно быть мамой
19. The Time Bandit - Время бандитов
20. Polly Wants a Treasure
21. From Here to Machinery - Кто заменит робота?
22. A Spy in the Ointment - Шпион познаётся в беде
23. All's Whale That Ends Whale - Суета из-за кита
24. Bearly Alive - Еле-еле душа в теле
25. A Star Is Torn - И звёзды меркнут
26. Her Chance to Dream - Мечты, где ваша сладость?
27. Molly Coddled - Молли в неволе
28. On a Wing and a Bear - Медведь на бреющем полёте
29. The Golden Sprocket of Friendship - Золотая шестерёнка
30. War of the Weirds - Война врунов
31. Whistlestop Jackson, Legend - Легендарный авиатор Джексон
32. A Baloo Switcheroo - Превращения от похищения
33. The Balooest of the Blue Bloods - Балу голубых кровей
34. Last Horizons - Город за горизонтом
35. Feminine Air - В воздухе женщины
36. Citizen Khan - Гражданин Хан
37. Double or Nothing - Всё или ничего
38. My Fair Baloo - Воспитание Балу
39. Gruel and Unusual Punishment - Овёс и необычное наказание
40. Flight School Confidential - Лучшая школа пилотов
41. Save the Tiger - Если ты спас тигра
42. The Old Man and the Sea Duck - Старик и утёнок
43. Bringing Down Babyface
44. Pizza Pie in the Sky - Пиццу с неба получай
45. Louie's Last Stand - Последний шанс Луи
46. Captains Outrageous - Грозные капитаны
47. For Whom the Bell Klangs (1) - По ком звонит колокол? (1 серия)
48. For Whom the Bell Klangs (2) - По ком звонит колокол? (2 серия)
49. Jumping the Guns - Пушки и прыжки
50. Sheepskin Deep - Глубокие знания
51. In Search of Ancient Blunders
52. Waiders of the Wost Tweasure - Искатели утраченного сокровища
53. Baloo Thunder - Балу-громовержец
54. The Road to Macadamia - Дорога в Макадамию
55. The Sound and the Furry - Пушистые непоседы
56. Destiny Rides Again - Судьбу не обманешь
57. Paradise Lost - Потерянный рай
58. The Incredible Shrinking Molly - Очень маленькая Молли
59. Flying Dupes - Осторожно, за штурвалом ас
60. Stuck on You - Я от тебя не отстану
61. The Ransom of Red Chimp - Выкуп за тётушку
62. Bullethead Baloo - Реактивный Балу
63. Mach One for the Gipper - Эксперементальная модель
64. Your Baloo's in the Mail - Ваш почтальон Балу
65. Vowel Play - Игра слов

Скриншоты:

Яндекс.Метрика
Рейтинг@Mail.ru