Дикая природа Джеймса / All the Wilderness (2014) HDRip

 

Создавать темы 11-Май-2015 15:37

--Дикая природа Джеймса / All the Wilderness (2014) HDRip--
    • Производство: США, Super Crispy Entertainment
    • Жанр: Драма
    • Режиссер: Майкл Джонсон
    • Актеры: Вирджиния Мэдсен, Дэнни ДеВито, Коди Смит-МакФи, Ивэн Росс, Изабель Фурман
    • Описание:
        • История о непоседливом подростке, который решает исследовать дикую местность своего города, страдая из-за отсутствия отца.
- -
      • Дата мировой премьеры: 9 марта 2014
      • Продолжительность: 01:16:29
      • Качество видео: HDRip
      • Перевод: Двуголосый закадровый
      • Язык: Русский
      • Видеокодек: Xvid
      • Битрейт видео: ~2065 kbps
      • Размер кадра: 720x304
      • Аудиокодек: AC3 2.0
      • Битрейт аудио: 192 kbps
-

Mediainfo:

      • Код:
        Общее
        Полное имя : D:\Games\All.the.Wilderness.2014.HDRip.XviD.avi
        Формат : AVI
        Формат/Информация : Audio Video Interleave
        Размер файла : 1,21 Гбайт
        Продолжительность : 1 ч. 16 м.
        Общий поток : 2266 Кбит/сек
        Библиотека кодирования : VirtualDub build 34753/release
        Видео
        Идентификатор : 0
        Формат : MPEG-4 Visual
        Профиль формата : Advanced [email protected]
        Параметр BVOP формата : 2
        Параметр QPel формата : Нет
        Параметр GMC формата : Без точки перехода
        Параметр матрицы формата : Default (H.263)
        Режим смешивания : Сжатый битовый поток
        Идентификатор кодека : XVID
        Идентификатор кодека/Подсказка : XviD
        Продолжительность : 1 ч. 16 м.
        Битрейт : 2065 Кбит/сек
        Ширина : 720 пикселей
        Высота : 304 пикселя
        Соотношение сторон : 2,35:1
        Частота кадров : 23,976 кадра/сек
        Цветовое пространство : YUV
        Субдискретизация насыщенности : 4:2:0
        Битовая глубина : 8 бит
        Тип развёртки : Прогрессивная
        Метод сжатия : С потерями
        Бит/(Пиксели*Кадры) : 0.393
        Размер потока : 1,10 Гбайт (91%)
        Библиотека кодирования : XviD 64
        Аудио
        Идентификатор : 1
        Формат : AC-3
        Формат/Информация : Audio Coding 3
        Расширение режима : CM (complete main)
        Параметр Endianness формата : Big
        Идентификатор кодека : 2000
        Продолжительность : 1 ч. 16 м.
        Вид битрейта : Постоянный
        Битрейт : 192 Кбит/сек
        Каналы : 2 канала
        Расположение каналов : Front: L R
        Частота : 48,0 КГц
        Битовая глубина : 16 бит
        Метод сжатия : С потерями
        Размер потока : 105 Мбайт (8%)
        Выравнивание : Соединение по промежуткам
        Продолжительность промежутка : 42 мс. (1,00 видеокадр)
        Время предзагрузки промежутка : 512 мс.
Скриншоты:
Яндекс.Метрика
Рейтинг@Mail.ru