Эффект колибри / Hummingbird (2013) BDRip 720p | Лицензия

 

Создавать темы 03-Дек-2013 15:05

--Эффект колибри / Hummingbird (2013) BDRip 720p--Год выхода: 2013
Жанр: триллер, драма, криминал, боевик
Режиссер: Стивен Найт
В ролях: Джейсон Стэйтем, Агата Бузек, Бенедикт Вонг, Вики МакКлюр, Гер Райан, Юссуф Керкур, Энтони Моррис, Виктория Бьюик, Кристиан Брассингтон
О ФИЛЬМЕ
Бывший спецназовец Джоуи Джонс пытается начать новую жизнь. Он соглашается работать на азиатскую мафию. Но проникая все глубже в криминальный мир родного города, он понимает, что не может спокойно смотреть на творящееся в нем беззаконие. Когда от рук бандитов погибает его возлюбленная Изабель, Джоуи решает восстановить справедливость. Он начинает расследование, которое ведет его на самый верх преступного синдиката.
Страна: США / Великобритания
Производство: IM Global, Lionsgate, Shoebox Films
Продолжительность: 01:40:02
Перевод: Дублированный [Лицензия]
Файл
Качество: BDRip 720p [Blu-Ray Remux]
Формат: MKV
Видео: AVC, 1280x720 at 23.976 fps, AVC at 5350 kbps avg, 0.242 bit/pixel
Аудио 1: Русский AC3 / 6ch / 448 kbps | Дубляж [Лицензия]
Аудио 2: Английский AC3 / 6ch / 448 kbps | Original
Субтитры: Русские, Английские

Скриншоты

MI

General
Unique ID : 246892692459237440727554477829464516627 (0xB9BDCD8DDA824D8CAD3C3D8BF20BE813)
Complete name : F:Hummingbird.2013.BD.720.Hot-Film.mkv
Format : Matroska
Format version : Version 2
File size : 4.36 GiB
Duration : 1h 40mn
Overall bit rate : 6 239 Kbps
Encoded date : UTC 2013-09-27 10:33:25
Writing application : mkvmerge v5.8.0 ('No Sleep / Pillow') built on Sep 2 2012 15:37:04
Writing library : libebml v1.2.3 + libmatroska v1.3.0
Video
ID : 1
Format : AVC
Format/Info : Advanced Video Codec
Format profile : [email protected]
Format settings, CABAC : Yes
Format settings, ReFrames : 9 frames
Codec ID : V_MPEG4/ISO/AVC
Duration : 1h 40mn
Bit rate : 5 350 Kbps
Width : 1 280 pixels
Height : 720 pixels
Display aspect ratio : 16:9
Frame rate mode : Constant
Frame rate : 23.976 fps
Color space : YUV
Chroma subsampling : 4:2:0
Bit depth : 8 bits
Scan type : Progressive
Bits/(Pixel*Frame) : 0.242
Stream size : 3.65 GiB (84%)
Writing library : x264 core 133 r2334 a3ac64b
Encoding settings : cabac=1 / ref=9 / deblock=1:-2:-2 / analyse=0x3:0x113 / me=umh / subme=11 / psy=1 / psy_rd=1.03:0.10 / mixed_ref=1 / me_range=32 / chroma_me=1 / trellis=2 / 8x8dct=1 / cqm=0 / deadzone=21,11 / fast_pskip=0 / chroma_qp_offset=-3 / threads=2 / lookahead_threads=1 / sliced_threads=0 / nr=0 / decimate=0 / interlaced=0 / bluray_compat=0 / constrained_intra=0 / bframes=11 / b_pyramid=2 / b_adapt=2 / b_bias=0 / direct=3 / weightb=1 / open_gop=0 / weightp=2 / keyint=240 / keyint_min=23 / scenecut=40 / intra_refresh=0 / rc_lookahead=40 / rc=2pass / mbtree=0 / bitrate=5350 / ratetol=1.0 / qcomp=0.60 / qpmin=0 / qpmax=69 / qpstep=4 / cplxblur=20.0 / qblur=0.5 / vbv_maxrate=50000 / vbv_bufsize=62500 / nal_hrd=none / ip_ratio=1.40 / pb_ratio=1.30 / aq=1:0.80
Language : English
Default : Yes
Forced : No
Audio #1
ID : 2
Format : AC-3
Format/Info : Audio Coding 3
Mode extension : CM (complete main)
Format settings, Endianness : Big
Codec ID : A_AC3
Duration : 1h 40mn
Bit rate mode : Constant
Bit rate : 448 Kbps
Channel(s) : 6 channels
Channel positions : Front: L C R, Side: L R, LFE
Sampling rate : 48.0 KHz
Bit depth : 16 bits
Compression mode : Lossy
Stream size : 321 MiB (7%)
Title : Дубляж
Language : Russian
Default : Yes
Forced : No
Audio #2
ID : 3
Format : AC-3
Format/Info : Audio Coding 3
Mode extension : CM (complete main)
Format settings, Endianness : Big
Codec ID : A_AC3
Duration : 1h 40mn
Bit rate mode : Constant
Bit rate : 448 Kbps
Channel(s) : 6 channels
Channel positions : Front: L C R, Side: L R, LFE
Sampling rate : 48.0 KHz
Bit depth : 16 bits
Compression mode : Lossy
Stream size : 321 MiB (7%)
Title : Original
Language : English
Default : No
Forced : No
Text #1
ID : 4
Format : UTF-8
Codec ID : S_TEXT/UTF8
Codec ID/Info : UTF-8 Plain Text
Title : Russian
Language : Russian
Default : No
Forced : No
Text #2
ID : 5
Format : UTF-8
Codec ID : S_TEXT/UTF8
Codec ID/Info : UTF-8 Plain Text
Title : English
Language : English
Default : No
Forced : No
Релиз от:

Создавать темы 26-Янв-2016 23:31 (спустя 2 года 1 месяц)

Топик был перенесен из форума Новинки (HD) в форум Зарубежные Фильмы (HD)
T_O_M
Яндекс.Метрика
Рейтинг@Mail.ru