Пипец 2 / Kick-Ass 2 (Джефф Уодлоу / Jeff Wadlow) [2013, Боевик, комедия, криминал, BDRip-AVC] Dub (iTunes) + Original (Eng) + Sub (Eng)

 

Создавать темы 03-Дек-2013 14:57

Пипец 2 / Kick-Ass 2
Страна: США, Великобритания / Universal Pictures, Marv Films, Plan B Entertainment
Жанр: Боевик, комедия, криминал
Год выпуска: 2013
Продолжительность: 01:43:00-Перевод: Профессиональный (дублированный) iTunes
Cубтитры: английские (SDH + SDH-Colored)
Формат субтитров: softsub (SRT)
Оригинальная аудиодорожка: английский-Режиссер: Джефф Уодлоу / Jeff Wadlow
В ролях: Аарон Тейлор-Джонсон, Хлоя Грейс Морец, Кристофер Минц-Плассе, Джим Керри, Ольга Куркулина, Кларк Дьюк, Линди Бут, Дональд Фэйсон, Роберт Эммс, Август Прю
Описание: В реальной жизни не встретишь супергероя из комиксов, зато в ней есть настоящие герои. Харизматичный Пипец и гламурная Убивашка обрели новую команду поддержки во главе с Полковником Америка. Но кроме обычных мафиози, над городом нависает новая угроза - молодой мажор с очень дурным характером и целой армией отмороженных наемников.-
Релиз от:
Автор рипа: potroks-Качество видео: BDRip-AVC [KICK-ASS_2_REMUX_HDCLUB]
Формат видео: MKV
Видео: x.264, 1104x460 (2,40:1), 23,976 fps, 2205 Кbps, 0.181 bit/pixel
Аудио#1: 48 kHz, AC3 Dolby Digital, 3/2 (L,C,R,l,r) + LFE ch, 384.00 kbps | RUS
Аудио#2: 48 kHz, AC3 Dolby Digital, 3/2 (L,C,R,l,r) + LFE ch, 448.00 kbps | ENG

MediaInfo

Общее
Уникальный идентификатор : 215937690164313499038112398958048496265 (0xA274161BBFEABD4981D4EE968352CA89)
Полное имя : Pipec.2.2013.DUAL.BDRip.x264.-HELLYWOOD.mkv
Формат : Matroska
Версия формата : Version 4 / Version 2
Размер файла : 2,18 Гбайт
Продолжительность : 1 ч. 43 м.
Общий поток : 3032 Кбит/сек
Название фильма : HELLYWOOD - rip by potroks
Дата кодирования : UTC 2013-12-02 02:06:47
Программа кодирования : mkvmerge v5.9.0 ('On The Loose') built on Dec 15 2012 16:39:58
Библиотека кодирования : libebml v1.3.0 + libmatroska v1.4.0
Видео
Идентификатор : 1
Формат : AVC
Формат/Информация : Advanced Video Codec
Профиль формата : [email protected]
Параметр CABAC формата : Да
Параметр ReFrames формата : 10 кадров
Идентификатор кодека : V_MPEG4/ISO/AVC
Продолжительность : 1 ч. 43 м.
Битрейт : 2205 Кбит/сек
Ширина : 1104 пикселя
Высота : 460 пикселей
Соотношение сторон : 2,40:1
Режим частоты кадров : Постоянный
Частота кадров : 23,976 кадра/сек
Цветовое пространство : YUV
Субдискретизация насыщенности : 4:2:0
Битовая глубина : 8 бит
Тип развёртки : Прогрессивная
Бит/(Пиксели*Кадры) : 0.181
Размер потока : 1,54 Гбайт (71%)
Заголовок : Kick-Ass 2
Библиотека кодирования : x264 core 130 r2273 b3065e6
Настройки программы : cabac=1 / ref=10 / deblock=1:-2:-1 / analyse=0x3:0x133 / me=umh / subme=11 / psy=1 / psy_rd=1.05:0.00 / mixed_ref=1 / me_range=32 / chroma_me=1 / trellis=2 / 8x8dct=1 / cqm=0 / deadzone=21,11 / fast_pskip=0 / chroma_qp_offset=-2 / threads=9 / lookahead_threads=7 / sliced_threads=0 / nr=0 / decimate=0 / interlaced=0 / bluray_compat=0 / constrained_intra=0 / bframes=11 / b_pyramid=2 / b_adapt=2 / b_bias=0 / direct=3 / weightb=1 / open_gop=0 / weightp=2 / keyint=250 / keyint_min=23 / scenecut=40 / intra_refresh=0 / rc_lookahead=60 / rc=2pass / mbtree=0 / bitrate=2205 / ratetol=1.0 / qcomp=0.70 / qpmin=0 / qpmax=69 / qpstep=4 / cplxblur=20.0 / qblur=0.5 / vbv_maxrate=20000 / vbv_bufsize=20000 / nal_hrd=none / ip_ratio=1.35 / pb_ratio=1.25 / aq=1:0.80
Язык : English
Default : Да
Forced : Нет
Аудио #1
Идентификатор : 2
Формат : AC-3
Формат/Информация : Audio Coding 3
Расширение режима : CM (complete main)
Параметр Endianness формата : Big
Идентификатор кодека : A_AC3
Продолжительность : 1 ч. 43 м.
Вид битрейта : Постоянный
Битрейт : 384 Кбит/сек
Каналы : 6 каналов
Расположение каналов : Front: L C R, Side: L R, LFE
Частота : 48,0 КГц
Битовая глубина : 16 бит
Метод сжатия : С потерями
Размер потока : 283 Мбайт (13%)
Заголовок : Dub | DD 5.1 @ 384 kbps - iTunes
Язык : Russian
Default : Да
Forced : Да
Аудио #2
Идентификатор : 3
Формат : AC-3
Формат/Информация : Audio Coding 3
Расширение режима : CM (complete main)
Параметр Endianness формата : Big
Идентификатор кодека : A_AC3
Продолжительность : 1 ч. 43 м.
Вид битрейта : Постоянный
Битрейт : 448 Кбит/сек
Каналы : 6 каналов
Расположение каналов : Front: L C R, Side: L R, LFE
Частота : 48,0 КГц
Битовая глубина : 16 бит
Метод сжатия : С потерями
Размер потока : 330 Мбайт (15%)
Заголовок : Original | DD 5.1 @ 448 kbps
Язык : English
Default : Нет
Forced : Нет
Текст #1
Идентификатор : 4
Формат : UTF-8
Идентификатор кодека : S_TEXT/UTF8
Идентификатор кодека/Информация : UTF-8 Plain Text
Заголовок : SDH-Colored
Язык : English
Default : Нет
Forced : Нет
Текст #2
Идентификатор : 5
Формат : UTF-8
Идентификатор кодека : S_TEXT/UTF8
Идентификатор кодека/Информация : UTF-8 Plain Text
Заголовок : SDH
Язык : English
Default : Нет
Forced : Нет
Меню
00:00:00.000 : en:(01)00:00:00:000
00:05:58.191 : en:(02)00:05:58:191
00:10:37.928 : en:(03)00:10:37:928
00:14:08.305 : en:(04)00:14:08:305
00:19:11.108 : en:(05)00:19:11:108
00:23:11.348 : en:(06)00:23:11:348
00:30:20.443 : en:(07)00:30:20:443
00:35:25.498 : en:(08)00:35:25:498
00:40:13.786 : en:(09)00:40:13:786
00:45:37.192 : en:(10)00:45:37:192
00:52:35.777 : en:(11)00:52:35:777
00:58:02.395 : en:(12)00:58:02:395
01:00:37.842 : en:(13)01:00:37:842
01:05:36.098 : en:(14)01:05:36:098
01:09:57.943 : en:(15)01:09:57:943
01:15:56.343 : en:(16)01:15:56:343
01:21:05.485 : en:(17)01:21:05:485
01:23:32.549 : en:(18)01:23:32:549
01:33:05.537 : en:(19)01:33:05:537
01:36:38.250 : en:(20)01:36:38:250
01:42:59.923 : en:(21)01:42:59:923

Скриншоты

Создавать темы 26-Янв-2016 23:26 (спустя 2 года 1 месяц)

Топик был перенесен из форума Зарубежные Новинки (HD*Rip/LQ, DVDRip) в форум Зарубежные Фильмы (HD*Rip/LQ, DVDRip, SATRip, VHSRip)
T_O_M
Яндекс.Метрика
Рейтинг@Mail.ru