Сталинград / STALINGRAD (Фёдор Бондарчук) [2013, Военный, драма, боевик, ВDRip-AVC 1080p] [DD5.1] [Лицензия]

 

Создавать темы 03-Дек-2013 13:43

--Сталинград / STALINGRAD-- --Год выпуска: 2013
Выпущено: РОССИЯ , Арт Пикчерс Студия, Нон-стоп Продакшн, Main Road Post , Illusion Industries грим
Жанр: Военный, драма, боевик
Продолжительность: 02:05:29
Перевод:НЕ ТРЕБУЕТСЯ
Субтитры : отсутствуют-- --Режиссер: Фёдор Бондарчук--В ролях: Пётр Фёдоров, Томас Кречманн, Мария Смольникова, Янина Студилина, Дмитрий Лысенков, Алексей Барабаш, Андрей Смоляков, Сергей Бондарчук, Олег Волку, Хайнер Лаутербах, Олег Тилькин, Ян Кузьмин, Кирилл Варакса, Полина Райкина, Юрий Уткин, Олег Малышев-- 1942-й год. Сталинград. Советские войска планируют контрнаступление на немецкие части, занявшие правый берег Волги. Наступление сорвано. Лишь разведчикам под командованием капитана Громова удается перебраться на другой берег и закрепиться в одном из домов. Им дан приказ удержать его любой ценой. Кроме нескольких чудом уцелевших советских солдат они находят в доме его последнюю жительницу — 19-летнюю Катю.
Приказ отбить дом, захваченный противником, получает немецкий офицер Кан. На фоне одного из самых кровопролитных сражений в истории человечества разворачиваются истории любви и драматического противостояния характеров.
--Качество : ВDRip-AVC 1080p
Формат: MPEG-4
Видео кодек: H264
Видео: 5523Кбит/сек,1920х1080(16.9),в 25.000кадр/сек,AVC([email protected])(1Ref Frames)
Аудио кодек: AAC
Аудио Russian Dolby Digital 5.1:440Кбит/сек,44.1КГц,6каналов,AAC,(Version4)(LC)--

Доп. информация:

Звуковая дорожка сделана путем наложения чистого голоса озвучивателей на центральный канал оригинальной дорожки. Качество идентично звуковой дорожке.
--

MediaInfo

General
Полное имя : D:\STALINGRAD_2013_RUS__DD5.1_x264_Nikolai.Baranov_ВDRip-AVC_1080p.mp4
Формат : MPEG-4
Профиль формата : Base Media
Идентификатор кодека : isom
Размер файла : 5.46 GiB
Продолжительность : 2h 10mn
Режим общего битрейта : Variable
Общий поток : 5 970 Kbps
Дата кодирования : UTC 2013-12-03 00:04:22
Дата пометки : UTC 2013-12-03 00:04:22
Программа кодирования : Lavf51.12.1
Video
Идентификатор : 1
Формат : AVC
Формат/Информация : Advanced Video Codec
Профиль формата : [email protected]
Параметр CABAC формата : No
Параметр ReFrames формата : 1 frame
Параметр GOP формата : M=1, N=12
Идентификатор кодека : avc1
Идентификатор кодека/Информация : Advanced Video Coding
Продолжительность : 2h 10mn
Вид битрейта : Variable
Битрейт : 5 523 Kbps
Максимальный битрейт : 7 950 Kbps
Ширина : 1 920 pixels
Высота : 1 080 pixels
Соотношение сторон : 16:9
Режим частоты кадров : Constant
Частота кадров : 25.000 fps
Частота кадров в оригинале : 24.000 fps
Цветовое пространство : YUV
Субдискретизация насыщенности : 4:2:0
Битовая глубина : 8 bits
Тип развёртки : Progressive
Бит/(Пиксели*Кадры) : 0.107
Размер потока : 5.05 GiB (93%)
Дата кодирования : UTC 2013-12-03 00:04:22
Дата пометки : UTC 2013-12-03 00:04:22
Audio
Идентификатор : 2
Формат : AAC
Формат/Информация : Advanced Audio Codec
Профиль формата : LC
Идентификатор кодека : 40
Продолжительность : 2h 10mn
Вид битрейта : Variable
Битрейт : 440 Kbps
Каналы : 6 channels
Расположение каналов : Front: L C R, Side: L R, LFE
Частота : 44.1 KHz
Метод сжатия : Lossy
Размер потока : 412 MiB (7%)
Дата кодирования : UTC 2013-12-03 00:04:22
Дата пометки : UTC 2013-12-03 00:04:22
--

Скриншоты

-- --Релиз от: Nikolai.Baranov --
Яндекс.Метрика
Рейтинг@Mail.ru