Тотем волка / Wolf Totem (2015) BDRip 720p | L2

 

Создавать темы 10-Май-2015 11:24

Информация о фильме
Название: Тотем волка
Оригинальное название: Wolf Totem
Год выхода: 2015
Жанр: приключения
Режиссер: Жан-Жак Анно
В ролях: Уилльям Фэн, Шон До, Ба Сэнь Чжа Бу, Анкхньям Рачаа, Yin Zhushen, Baoyingexige
О фильме: В 1967 году молодой пекинский студент Чэнь Чжэнь отправляется жить среди кочевых пастухов Внутренней Монголии. Оказавшись зажатыми между прогрессом цивилизации с юга и мародерством волков на севере, люди и животные борются, чтобы найти свое место в мире.

Выпущено: Китай, Франция / China Film Co., Reperage, Beijing Forbidden City Film Co
Продолжительность: 02:01:17
Озвучивание: Любительское (двухголосое) [Студия Пиратского Дубляжа]
Файл
Формат: MKV
Качество: BDRip 720p
Видео: MPEG-4 AVC, 9485 Кбит/с, 1280x536
Аудио: Русский (АС3, 2 ch, 384 Кбит/с), английский (АС3, 2 ch, 640 Кбит/с)
Размер: 9.08 ГБ
Субтитры: Английские
Скачать: Сэмпл---

Media Info

Уникальный идентификатор                 : 192482681303380520944515428844994119794 (0x90CED0E365CB81B5A6036DFD069D4872)
Полное имя                               : D:ТорентТорент видео7.05T0tem.Volka.2015.P.BDRip.720p.mkv
Формат                                   : Matroska
Версия формата                           : Version 2
Размер файла                             : 9.08 GiB
Продолжительность                        : 2h 1mn
Режим общего битрейта                    : Variable
Общий поток                              : 10.7 Mbps
Дата кодирования                         : UTC 2015-05-09 03:57:16
Программа кодирования                    : mkvmerge v7.8.0 ('River Man') 64bit built on Mar 27 2015 16:31:37
Библиотека кодирования                   : libebml v1.3.1 + libmatroska v1.4.2
Video
Идентификатор                            : 1
Формат                                   : AVC
Формат/Информация                        : Advanced Video Codec
Профиль формата                          : [email protected]
Параметр CABAC формата                   : Yes
Параметр ReFrames формата                : 4 frames
Идентификатор кодека                     : V_MPEG4/ISO/AVC
Продолжительность                        : 2h 1mn
Вид битрейта                             : Variable
Битрейт                                  : 9 485 Kbps
Максимальный битрейт                     : 40.0 Mbps
Ширина                                   : 1 280 pixels
Высота                                   : 570 pixels
Соотношение сторон                       : 2.25:1
Режим частоты кадров                     : Constant
Частота кадров                           : 24.000 fps
Цветовое пространство                    : YUV
Субдискретизация насыщенности            : 4:2:0
Битовая глубина                          : 8 bits
Тип развёртки                            : Progressive
Бит/(Пиксели*Кадры)                      : 0.542
Размер потока                            : 8.03 GiB (88%)
Библиотека кодирования                   : x264 core 146 r2538 121396c
Настройки программы                      : cabac=1 / ref=4 / deblock=1:0:0 / analyse=0x3:0x3 / me=dia / subme=1 / psy=1 / psy_rd=1.00:0.00 / mixed_ref=0 / me_range=16 / chroma_me=1 / trellis=0 / 8x8dct=1 / cqm=0 / deadzone=21,11 / fast_pskip=1 / chroma_qp_offset=-2 / threads=12 / lookahead_threads=2 / sliced_threads=0 / slices=4 / nr=0 / decimate=1 / interlaced=0 / bluray_compat=1 / constrained_intra=0 / bframes=1 / b_pyramid=0 / b_adapt=1 / b_bias=0 / direct=1 / weightb=1 / open_gop=1 / weightp=1 / keyint=24 / keyint_min=1 / scenecut=40 / intra_refresh=0 / rc_lookahead=24 / rc=crf / mbtree=0 / crf=17.5 / qcomp=0.60 / qpmin=0 / qpmax=69 / qpstep=4 / vbv_maxrate=40000 / vbv_bufsize=30000 / crf_max=0.0 / nal_hrd=vbr / filler=0 / ip_ratio=1.40 / pb_ratio=1.30 / aq=2:1.00
Default                                  : Yes
Forced                                   : No
Audio #1
Идентификатор                            : 2
Формат                                   : AC-3
Формат/Информация                        : Audio Coding 3
Расширение режима                        : CM (complete main)
Параметр Endianness формата              : Big
Идентификатор кодека                     : A_AC3
Продолжительность                        : 2h 1mn
Вид битрейта                             : Constant
Битрейт                                  : 384 Kbps
Каналы                                   : 2 channels
Расположение каналов                     : Front: L R
Частота                                  : 48.0 KHz
Битовая глубина                          : 16 bits
Метод сжатия                             : Lossy
Размер потока                            : 333 MiB (4%)
Язык                                     : Russian
Default                                  : Yes
Forced                                   : No
Audio #2
Идентификатор                            : 3
Формат                                   : AC-3
Формат/Информация                        : Audio Coding 3
Расширение режима                        : CM (complete main)
Параметр Endianness формата              : Big
Идентификатор кодека                     : A_AC3
Продолжительность                        : 2h 1mn
Вид битрейта                             : Constant
Битрейт                                  : 640 Kbps
Каналы                                   : 6 channels
Расположение каналов                     : Front: L C R, Side: L R, LFE
Частота                                  : 48.0 KHz
Битовая глубина                          : 16 bits
Метод сжатия                             : Lossy
Размер потока                            : 555 MiB (6%)
Язык                                     : Chinese
Default                                  : No
Forced                                   : No
Text
Идентификатор                            : 4
Формат                                   : PGS
Режим смешивания                         : zlib
Идентификатор кодека                     : S_HDMV/PGS
Идентификатор кодека/Информация          : The same subtitle format used on BDs/HD-DVDs
Язык                                     : English
Default                                  : No
Forced                                   : No

Скриншоты:

Яндекс.Метрика
Рейтинг@Mail.ru