[ Сегодня на трекере фрилич! Идет свободное скачивание без начисления Download ]

Парад Победы. Москва. Красная площадь (2015) HDTV 1080i

 

Создавать темы 09-Май-2015 19:02

Год: 2015
Страна: Россия-Описание:
Каждый год 9 мая во многих странах мира отмечают День Победы над немецко-фашистскими захватчиками. Но нигде этот праздник не празднуют с таким размахом, как в России. В 2015 году на 70-летие Дня Победы в Москве планируется самый масштабный и запоминающийся военный парад. Безусловно, каждый хотел бы увидеть это мероприятие своими глазами, однако не у всех есть возможность. В Параде Победы 2015 примут участие также и военнослужащие других стран. Сюда входят представители вооруженных сил Армении, Сербии, Азербайджана, Китая, Киргизии, Индии, Казахстана, Республики Беларусь, Таджикистана. Также впервые за всю историю празднования Дня Победы будут участвовать военнослужащие Монголии. На Параде Победы в 2015 году будет задействовано 194 единицы бронетехники, 143 самолёта и вертолёта, более 15000 военнослужащих. Начнется парад с демонстрации военной техники, которая принесла нам победу 70 лет назад - по Красной площади пройдут легендарные танки Т-34 и самоходные артиллерийский установки СУ-100. После ретро-машин зрители смогут увидеть образцы новейшей российской техники - танк нового поколения «Армата», бронетранспортер «Бумеранг», ракетный комплекс «Бастион» и другие. Так, впервые за всю историю празднования Дня Победы пройдут самоходные артиллерийские установки нового поколения "Коалиция-СВ",комплекс "Корнет-Д", стратегические ракетные комплексы "Ярс" и другие виды боевой техники. Если вы не хотите пропустить это масштабное мероприятие, и у вас нет возможности побывать на Красной площади, то на нашем сайте будет онлайн трансляция всего, что происходит на Параде в Москве. В авиационной части парада в 2015 году будет задействован 21 тип авиатехники. Зрители на Красной площади и в онлайн трансляции смогут наблюдать поистине грандиозное зрелище - в небе над Москвой пролетят тяжелые стратегические бомбардировщики Ту-160, Ту-95МС и Ту-22М3, транспортные самолеты Ил-76, Ил-78 и Ан-124, истребители Су-27, Су-30, Су-35 и многие другие. В завершении воздушной части Парада Победы экипажи МиГ-29 выстроят в небе число «70» из 15 самолетов, а штурмовики Су-25 украсят небо над столицей России дымами цветов российского флага.--О файле:
Перевод: Оригинал
Продолжительность:01:19:58
Формат: TS
Качество: HDTV (1080i)
Видео: AVC, 1920x1080, Частота кадров: 25.0000, Битрейт: 12.3 Мбит/с
Аудио: (AC3, 6 ch, 384 Кбит/с, MP2, 2 ch, 192 Кбит/с)

MI

General
ID : 1 (0x1)
Complete name : E:\Временные торренты\Парад Победы. Москва. Красная площадь.(2015).HDTV 1080i.ts
Format : MPEG-TS
File size : 7.56 GiB
Duration : 1h 19mn
Overall bit rate mode : Variable
Overall bit rate : 13.5 Mbps-Video
ID : 1603 (0x643)
Menu ID : 80 (0x50)
Format : AVC
Format/Info : Advanced Video Codec
Format profile : [email protected]
Format settings, CABAC : Yes
Format settings, ReFrames : 3 frames
Codec ID : 27
Duration : 1h 19mn
Bit rate : 12.3 Mbps
Width : 1 920 pixels
Height : 1 080 pixels
Display aspect ratio : 16:9
Frame rate : 25.000 fps
Standard : Component
Color space : YUV
Chroma subsampling : 4:2:0
Bit depth : 8 bits
Scan type : Interlaced
Scan order : Top Field First
Bits/(Pixel*Frame) : 0.237
Stream size : 6.86 GiB (91%)
Color primaries : BT.709
Transfer characteristics : BT.709
Matrix coefficients : BT.709
Audio #1
ID : 2603 (0xA2B)
Menu ID : 80 (0x50)
Format : AC-3
Format/Info : Audio Coding 3
Mode extension : CM (complete main)
Format settings, Endianness : Big
Codec ID : 6
Duration : 1h 19mn
Bit rate mode : Constant
Bit rate : 384 Kbps
Channel(s) : 6 channels
Channel positions : Front: L C R, Side: L R, LFE
Sampling rate : 48.0 KHz
Bit depth : 16 bits
Compression mode : Lossy
Delay relative to video : -80ms
Stream size : 220 MiB (3%)
Language : Russian
Audio #2
ID : 2604 (0xA2C)
Menu ID : 80 (0x50)
Format : MPEG Audio
Format version : Version 1
Format profile : Layer 2
Codec ID : 3
Duration : 1h 19mn
Bit rate mode : Constant
Bit rate : 192 Kbps
Channel(s) : 2 channels
Sampling rate : 48.0 KHz
Compression mode : Lossy
Delay relative to video : -80ms
Stream size : 110 MiB (1%)
Language : Russian

Скриншоты:

Яндекс.Метрика
Рейтинг@Mail.ru