Мумия / The Mummy (1999 г.) BDRip 1080p | 60fps

 

Создавать темы 09-Май-2015 11:14

Мумия / The Mummy
Год выпуска: 1999 г.
Жанр: Фэнтези, Боевик, Приключения
Страна: США
Режиссер: Стивен Соммерс
Продолжительность: 02:04:45
Перевод: Профессиональный (многоголосый закадровый)
В ролях:
Брендан Фрейзер, Рейчел Вайс, Джон Ханна, Арнольд Вослу, Кевин Дж. О’Коннор, Джонатан Хайд, Одед Фер, Эрик Авари, Стивен Данэм, Кори Джонсон
Описание:
На бескрайних просторах египетской пустыни компания сорвиголов разных национальностей рыщет в поисках несметных сокровищ фараона, над которыми тяготеет жуткое древнее проклятие. Рядом с кладом покоится мумия коварного жреца, жестоко казненного за ужасное убийство могущественного правителя Египта. Золотоискатели потревожили многовековой покой гробницы, и мумия встает из могилы, чтобы погрузить мир в царство кошмара
Сэмпл: http://www85.zippyshare.com/v/Ueajm9EH/file.html
Формат видео: MKV
Качество видео: BDRip 1080p | 60fps
Видео кодек: H.264
Аудио кодек: AC3
Видео: MPEG-4 AVC/H.264 Битрейт видео: ~8092 kb/s Размер кадра: 1920*816
Аудио: AC3 2.0, 448 kb/s, ОРТ
Аудио 2: AC3 5.1, 448 kb/s, СТС
Аудио 3: AC3 5.1, 640 kb/s, Премьер
Аудио 4: AC3 5.1, 640 kb/s
Cубтитры: русские
Формат субтитров: softsub (SRT)

Отчёт MediaInfo

Уникальный идентификатор : 220137257431772341256395570035316085106 (0xA59CE4C2BA5CFD36A75BAA7B39EDD172)
Полное имя : Мумия 1 1080p 60fps.mkv
Формат : Matroska
Версия формата : Version 4 / Version 2
Размер файла : 9,14 Гбайт
Продолжительность : 2 ч. 4 м.
Общий поток : 10,5 Мбит/сек
Дата кодирования : UTC 2014-05-23 21:51:38
Программа кодирования : mkvmerge v6.9.1 ('Blue Panther') 64bit built on Apr 18 2014 18:23:38
Библиотека кодирования : libebml v1.3.0 + libmatroska v1.4.1
Видео
Идентификатор : 1
Формат : AVC
Формат/Информация : Advanced Video Codec
Профиль формата : [email protected]
Параметр CABAC формата : Да
Параметр ReFrames формата : 4 кадра
Идентификатор кодека : V_MPEG4/ISO/AVC
Продолжительность : 2 ч. 4 м.
Битрейт : 8092 Кбит/сек
Ширина : 1920 пикселей
Высота : 816 пикселей
Соотношение сторон : 2,35:1
Режим частоты кадров : Постоянный
Частота кадров : 59,880 кадров/сек
Частота кадров в оригинале : 59,940 кадров/сек
Цветовое пространство : YUV
Субдискретизация насыщенности : 4:2:0
Битовая глубина : 8 бит
Тип развёртки : Прогрессивная
Бит/(Пиксели*Кадры) : 0.086
Размер потока : 7,06 Гбайт (77%)
Библиотека кодирования : x264 core 130 r2273 b3065e6
Настройки программы : cabac=1 / ref=4 / deblock=1:-1:-1 / analyse=0x3:0 / me=umh / subme=9 / psy=1 / psy_rd=1.00:0.10 / mixed_ref=1 / me_range=24 / chroma_me=0 / trellis=1 / 8x8dct=1 / cqm=0 / deadzone=21,11 / fast_pskip=0 / chroma_qp_offset=-3 / threads=6 / lookahead_threads=1 / sliced_threads=0 / nr=0 / decimate=0 / interlaced=0 / bluray_compat=0 / constrained_intra=0 / bframes=5 / b_pyramid=2 / b_adapt=2 / b_bias=0 / direct=1 / weightb=1 / open_gop=0 / weightp=2 / keyint=599 / keyint_min=59 / scenecut=40 / intra_refresh=0 / rc=crf / mbtree=0 / crf=18.0 / qcomp=0.60 / qpmin=0 / qpmax=69 / qpstep=4 / ip_ratio=1.40 / pb_ratio=1.30 / aq=1:0.90
Язык : English
Default : Да
Forced : Нет
Аудио #1
Идентификатор : 2
Формат : AC-3
Формат/Информация : Audio Coding 3
Профиль формата : Dolby Digital
Расширение режима : CM (complete main)
Параметр Endianness формата : Big
Идентификатор кодека : A_AC3
Продолжительность : 2 ч. 4 м.
Вид битрейта : Постоянный
Битрейт : 448 Кбит/сек
Каналы : 2 канала
Расположение каналов : Front: L R
Частота : 48,0 КГц
Битовая глубина : 16 бит
Метод сжатия : С потерями
Размер потока : 400 Мбайт (4%)
Заголовок : Blu Ray
Язык : Russian
Default : Да
Forced : Нет
Аудио #2
Идентификатор : 3
Формат : AC-3
Формат/Информация : Audio Coding 3
Расширение режима : CM (complete main)
Параметр Endianness формата : Big
Идентификатор кодека : A_AC3
Продолжительность : 2 ч. 4 м.
Вид битрейта : Постоянный
Битрейт : 448 Кбит/сек
Каналы : 6 каналов
Расположение каналов : Front: L C R, Side: L R, LFE
Частота : 48,0 КГц
Битовая глубина : 16 бит
Метод сжатия : С потерями
Размер потока : 400 Мбайт (4%)
Заголовок : STS
Язык : Russian
Default : Нет
Forced : Нет
Аудио #3
Идентификатор : 6
Формат : AC-3
Формат/Информация : Audio Coding 3
Расширение режима : CM (complete main)
Параметр Endianness формата : Big
Идентификатор кодека : A_AC3
Продолжительность : 2 ч. 4 м.
Вид битрейта : Постоянный
Битрейт : 640 Кбит/сек
Каналы : 6 каналов
Расположение каналов : Front: L C R, Side: L R, LFE
Частота : 48,0 КГц
Битовая глубина : 16 бит
Метод сжатия : С потерями
Размер потока : 572 Мбайт (6%)
Заголовок : Premer
Язык : Russian
Default : Нет
Forced : Нет
Аудио #4
Идентификатор : 7
Формат : AC-3
Формат/Информация : Audio Coding 3
Расширение режима : CM (complete main)
Параметр Endianness формата : Big
Идентификатор кодека : A_AC3
Продолжительность : 2 ч. 4 м.
Вид битрейта : Постоянный
Битрейт : 640 Кбит/сек
Каналы : 6 каналов
Расположение каналов : Front: L C R, Side: L R, LFE
Частота : 48,0 КГц
Битовая глубина : 16 бит
Метод сжатия : С потерями
Размер потока : 572 Мбайт (6%)
Заголовок : Original
Язык : English
Default : Нет
Forced : Нет
Текст #1
Идентификатор : 4
Формат : UTF-8
Идентификатор кодека : S_TEXT/UTF8
Идентификатор кодека/Информация : UTF-8 Plain Text
Заголовок : Full
Язык : Russian
Default : Нет
Forced : Нет
Текст #2
Идентификатор : 5
Формат : UTF-8
Идентификатор кодека : S_TEXT/UTF8
Идентификатор кодека/Информация : UTF-8 Plain Text
Заголовок : Full
Язык : English
Default : Нет
Forced : Нет
Меню
00:00:00.000 : en:Chapter 1
00:07:10.430 : en:Chapter 2
00:12:19.155 : en:Chapter 3
00:23:19.731 : en:Chapter 4
00:29:03.116 : en:Chapter 5
00:36:46.120 : en:Chapter 6
00:43:38.907 : en:Chapter 7
00:49:06.610 : en:Chapter 8
00:53:33.877 : en:Chapter 9
00:57:29.654 : en:Chapter 10
01:11:13.352 : en:Chapter 11
01:18:48.306 : en:Chapter 12
01:27:29.619 : en:Chapter 13
01:30:03.898 : en:Chapter 14
01:36:32.870 : en:Chapter 15
01:43:58.023 : en:Chapter 16
01:49:44.661 : en:Chapter 17
01:56:51.671 : en:Chapter 18
02:04:45.227 : en:Chapter 19

Скриншоты

Яндекс.Метрика
Рейтинг@Mail.ru