Пираты Карибского моря: На странных берегах / Pirates of the Caribbean: On Stranger Tides (2011 г.) BDRip 720p | 60fps

 

Создавать темы 09-Май-2015 11:09

Пираты Карибского моря: На странных берегах / Pirates of the Caribbean: On Stranger Tides
Год выпуска: 2011 г.
Жанр: Фэнтези, Боевик, Приключения
Страна: США
Режиссер: Роб Маршалл
Продолжительность: 02:16:24
Перевод: Профессиональный (дублированный)
Перевод 2: Не требуется
В ролях: Джонни Депп, Пенелопа Крус, Джеффри Раш, Иэн МакШейн, Кевин МакНэлли, Стивен Грэм, Сэм Клафлин, Астрид Берже-Фрисби, Джемма Уорд, Кит Ричардс
Описание:
В новой истории о поисках истины, предательстве, вечной молодости и смертельной опасности капитану Джеку Воробью предстоит столкнуться с женщиной из своего прошлого Анжеликой. До самого конца не будет понятно, связывает ли их настоящая любовь, или же Анжелика искусно притворяется, чтобы вместе с Джеком добраться до таинственного источника вечной молодости.
Она силой принуждает капитана Джека Воробья взойти на корабль «Месть Королевы Анны», которым управляет коварный злодей Черная Борода. Наш герой оказывается в ситуации, когда он не знает, чего ему бояться больше — ужасного злодея или же свою давнюю подругу.
Сэмпл: http://www85.zippyshare.com/v/souEkKja/file.html
Формат видео: MKV
Качество видео: BDRip 720p | 60fps
Видео кодек: H.264
Аудио кодек: AC3
Видео: H.264, ~10300 Кбит/сек, 1280*536, 59,880 кадров/сек
Аудио: Русский, AC3, 640 Кбит/сек, 6 каналов, 48,0 КГц
Аудио 2: Английский, AC3, 640 Кбит/сек, 6 каналов, 48,0 КГц
Cубтитры: русские
Формат субтитров: softsub (SRT)

Отчёт MediaInfo

Уникальный идентификатор : 226717874132193081470655815801426704573 (0xAA904636AEEBB368B0669DDE6D5878BD)
Полное имя : Пираты Карибского моря 4 На странных берегах.mkv
Формат : Matroska
Версия формата : Version 4 / Version 2
Размер файла : 11,3 Гбайт
Продолжительность : 2 ч. 16 м.
Общий поток : 11,8 Мбит/сек
Название фильма : Pirates of the Caribbean On Stranger Tides
Дата кодирования : UTC 2014-02-09 04:00:46
Программа кодирования : mkvmerge v6.7.0 ('Back to the Ground') 64bit built on Jan 8 2014 15:10:52
Библиотека кодирования : libebml v1.3.0 + libmatroska v1.4.1
Видео
Идентификатор : 1
Формат : AVC
Формат/Информация : Advanced Video Codec
Профиль формата : [email protected]
Параметр CABAC формата : Да
Параметр ReFrames формата : 9 кадров
Идентификатор кодека : V_MPEG4/ISO/AVC
Продолжительность : 2 ч. 16 м.
Битрейт : 10,3 Мбит/сек
Ширина : 1280 пикселей
Высота : 536 пикселей
Соотношение сторон : 2,40:1
Режим частоты кадров : Постоянный
Частота кадров : 59,880 кадров/сек
Частота кадров в оригинале : 59,940 кадров/сек
Цветовое пространство : YUV
Субдискретизация насыщенности : 4:2:0
Битовая глубина : 8 бит
Тип развёртки : Прогрессивная
Бит/(Пиксели*Кадры) : 0.251
Размер потока : 9,84 Гбайт (87%)
Библиотека кодирования : x264 core 130 r2273 b3065e6
Настройки программы : cabac=1 / ref=9 / deblock=1:0:0 / analyse=0x3:0 / me=umh / subme=9 / psy=1 / psy_rd=1.00:0.10 / mixed_ref=1 / me_range=24 / chroma_me=0 / trellis=1 / 8x8dct=1 / cqm=0 / deadzone=21,11 / fast_pskip=0 / chroma_qp_offset=-3 / threads=6 / lookahead_threads=1 / sliced_threads=0 / nr=0 / decimate=0 / interlaced=0 / bluray_compat=0 / constrained_intra=0 / bframes=6 / b_pyramid=2 / b_adapt=2 / b_bias=0 / direct=1 / weightb=1 / open_gop=0 / weightp=2 / keyint=250 / keyint_min=25 / scenecut=40 / intra_refresh=0 / rc=crf / mbtree=0 / crf=13.0 / qcomp=0.60 / qpmin=0 / qpmax=69 / qpstep=4 / ip_ratio=1.40 / pb_ratio=1.30 / aq=1:1.00
Язык : English
Default : Да
Forced : Нет
Аудио #1
Идентификатор : 2
Формат : AC-3
Формат/Информация : Audio Coding 3
Расширение режима : CM (complete main)
Параметр Endianness формата : Big
Идентификатор кодека : A_AC3
Продолжительность : 2 ч. 16 м.
Вид битрейта : Постоянный
Битрейт : 640 Кбит/сек
Каналы : 6 каналов
Расположение каналов : Front: L C R, Side: L R, LFE
Частота : 48,0 КГц
Битовая глубина : 16 бит
Метод сжатия : С потерями
Размер потока : 624 Мбайт (5%)
Заголовок : Dub
Язык : Russian
Default : Да
Forced : Нет
Аудио #2
Идентификатор : 6
Формат : AC-3
Формат/Информация : Audio Coding 3
Расширение режима : CM (complete main)
Параметр Endianness формата : Big
Идентификатор кодека : A_AC3
Продолжительность : 2 ч. 16 м.
Вид битрейта : Постоянный
Битрейт : 640 Кбит/сек
Каналы : 6 каналов
Расположение каналов : Front: L C R, Side: L R, LFE
Частота : 48,0 КГц
Битовая глубина : 16 бит
Метод сжатия : С потерями
Размер потока : 624 Мбайт (5%)
Заголовок : Original
Язык : English
Default : Нет
Forced : Нет
Текст #1
Идентификатор : 3
Формат : UTF-8
Идентификатор кодека : S_TEXT/UTF8
Идентификатор кодека/Информация : UTF-8 Plain Text
Заголовок : Forced
Язык : Russian
Default : Да
Forced : Да
Текст #2
Идентификатор : 4
Формат : UTF-8
Идентификатор кодека : S_TEXT/UTF8
Идентификатор кодека/Информация : UTF-8 Plain Text
Заголовок : Rus Full
Язык : Russian
Default : Нет
Forced : Нет
Текст #3
Идентификатор : 5
Формат : UTF-8
Идентификатор кодека : S_TEXT/UTF8
Идентификатор кодека/Информация : UTF-8 Plain Text
Заголовок : Eng Full
Язык : English
Default : Нет
Forced : Нет
Меню
00:00:00.000 : en:00:00:00.000
00:03:34.172 : en:00:03:34.172
00:08:46.776 : en:00:08:46.776
00:15:56.080 : en:00:15:56.080
00:18:34.155 : en:00:18:34.155
00:21:15.316 : en:00:21:15.316
00:30:05.512 : en:00:30:05.512
00:36:56.756 : en:00:36:56.756
00:42:05.356 : en:00:42:05.356
00:48:20.022 : en:00:48:20.022
00:53:26.078 : en:00:53:26.078
00:55:42.965 : en:00:55:42.965
00:57:52.844 : en:00:57:52.844
01:00:47.477 : en:01:00:47.477
01:08:22.223 : en:01:08:22.223
01:11:41.339 : en:01:11:41.339
01:13:03.170 : en:01:13:03.170
01:14:16.744 : en:01:14:16.744
01:23:19.995 : en:01:23:19.995
01:26:49.621 : en:01:26:49.621
01:30:16.494 : en:01:30:16.494
01:35:43.738 : en:01:35:43.738
01:40:57.927 : en:01:40:57.927
01:43:07.556 : en:01:43:07.556
01:44:51.660 : en:01:44:51.660
01:48:53.610 : en:01:48:53.610
01:57:41.471 : en:01:57:41.471
02:02:21.376 : en:02:02:21.376
02:05:51.461 : en:02:05:51.461
02:07:26.806 : en:02:07:26.806

Скриншоты

Яндекс.Метрика
Рейтинг@Mail.ru