[ Сегодня на трекере фрилич! Идет свободное скачивание без начисления Download ]

Мумия возвращается / The Mummy Returns (2001 г.) BDRip 1080p | 60fps

 

Создавать темы 09-Май-2015 07:14

Мумия возвращается / The Mummy Returns Год выпуска: 2001 г.
Жанр: Фэнтези, Боевик, Приключения
Страна: США
Режиссер: Стивен Соммерс
Продолжительность: 02:09:32
Перевод: Профессиональный (многоголосый закадровый)
В ролях:
Брендан Фрейзер, Рейчел Вайс, Джон Ханна, Арнольд Вослу, Одед Фер, Патрисия Веласкес, Фредди Боат, Алан Армстронг, Дуэйн Джонсон, Адевале Акинойе-Агбаже
Описание:
Прошло десять лет… Наш отважный герой, искатель приключений Рик О`Конелл, теперь богат, счастливо женат на прекрасной Эвелин и воспитывает своего восьмилетнего сына Алекса. Но злой рок не дает очаровательной семье О`Конеллов насладиться спокойной жизнью. Зловещий жрец Имхотеп снова восстал из мертвых! Теперь у Рика, Эвелин и малютки Алекса есть всего семь дней, чтобы спасти мир…

Формат видео: MKV
Качество видео: BDRip 1080p | 60fps
Видео кодек: H.264
Аудио кодек: AC3
Видео: Видеокодек: MPEG-4 AVC/H.264 Битрейт видео: ~8240 kb/s Размер кадра: 1920*816
Аудио: AC3 5.1, 448 kb/s, Дубляж
Аудио 2: AC3 5.1, 448 kb/s, Blu-ray
Аудио 3: AC3 5.1, 640 kb/s, ОРТ
Аудио 4: AC3 5.1, 640 kb/s
Cубтитры: русские
Формат субтитров: softsub (SRT)

Отчёт MediaInfo

Уникальный идентификатор : 234472183345699154740298791536177878585 (0xB065B32CDA0D3DA2AFE3DE187C169639)
Полное имя : Мумия 2 1080p 60fps.mkv
Формат : Matroska
Версия формата : Version 4 / Version 2
Размер файла : 10,0 Гбайт
Продолжительность : 2 ч. 9 м.
Общий поток : 11,1 Мбит/сек
Дата кодирования : UTC 2014-05-24 09:36:03
Программа кодирования : mkvmerge v6.9.1 ('Blue Panther') 64bit built on Apr 18 2014 18:23:38
Библиотека кодирования : libebml v1.3.0 + libmatroska v1.4.1
Видео
Идентификатор : 1
Формат : AVC
Формат/Информация : Advanced Video Codec
Профиль формата : [email protected]
Параметр CABAC формата : Да
Параметр ReFrames формата : 4 кадра
Идентификатор кодека : V_MPEG4/ISO/AVC
Продолжительность : 2 ч. 9 м.
Битрейт : 8240 Кбит/сек
Ширина : 1920 пикселей
Высота : 816 пикселей
Соотношение сторон : 2,35:1
Режим частоты кадров : Постоянный
Частота кадров : 59,880 кадров/сек
Частота кадров в оригинале : 59,940 кадров/сек
Цветовое пространство : YUV
Субдискретизация насыщенности : 4:2:0
Битовая глубина : 8 бит
Тип развёртки : Прогрессивная
Бит/(Пиксели*Кадры) : 0.088
Размер потока : 7,46 Гбайт (74%)
Библиотека кодирования : x264 core 130 r2273 b3065e6
Настройки программы : cabac=1 / ref=4 / deblock=1:-1:-1 / analyse=0x3:0 / me=umh / subme=9 / psy=1 / psy_rd=1.00:0.10 / mixed_ref=1 / me_range=24 / chroma_me=0 / trellis=1 / 8x8dct=1 / cqm=0 / deadzone=21,11 / fast_pskip=0 / chroma_qp_offset=-3 / threads=6 / lookahead_threads=1 / sliced_threads=0 / nr=0 / decimate=0 / interlaced=0 / bluray_compat=0 / constrained_intra=0 / bframes=5 / b_pyramid=2 / b_adapt=2 / b_bias=0 / direct=1 / weightb=1 / open_gop=0 / weightp=2 / keyint=599 / keyint_min=59 / scenecut=40 / intra_refresh=0 / rc=crf / mbtree=0 / crf=18.0 / qcomp=0.60 / qpmin=0 / qpmax=69 / qpstep=4 / ip_ratio=1.40 / pb_ratio=1.30 / aq=1:0.90
Язык : English
Default : Да
Forced : Нет
Аудио #1
Идентификатор : 2
Формат : AC-3
Формат/Информация : Audio Coding 3
Расширение режима : CM (complete main)
Параметр Endianness формата : Big
Идентификатор кодека : A_AC3
Продолжительность : 2 ч. 9 м.
Вид битрейта : Постоянный
Битрейт : 448 Кбит/сек
Каналы : 6 каналов
Расположение каналов : Front: L C R, Side: L R, LFE
Частота : 48,0 КГц
Битовая глубина : 16 бит
Метод сжатия : С потерями
Размер потока : 415 Мбайт (4%)
Заголовок : Dub
Язык : Russian
Default : Да
Forced : Нет
Аудио #2
Идентификатор : 3
Формат : AC-3
Формат/Информация : Audio Coding 3
Расширение режима : CM (complete main)
Параметр Endianness формата : Big
Идентификатор кодека : A_AC3
Продолжительность : 2 ч. 9 м.
Вид битрейта : Постоянный
Битрейт : 448 Кбит/сек
Каналы : 6 каналов
Расположение каналов : Front: L C R, Side: L R, LFE
Частота : 48,0 КГц
Битовая глубина : 16 бит
Метод сжатия : С потерями
Размер потока : 415 Мбайт (4%)
Заголовок : Blu-Ray
Язык : Russian
Default : Нет
Forced : Нет
Аудио #3
Идентификатор : 4
Формат : AC-3
Формат/Информация : Audio Coding 3
Расширение режима : CM (complete main)
Параметр Endianness формата : Big
Идентификатор кодека : A_AC3
Продолжительность : 2 ч. 9 м.
Вид битрейта : Постоянный
Битрейт : 640 Кбит/сек
Каналы : 6 каналов
Расположение каналов : Front: L C R, Side: L R, LFE
Частота : 48,0 КГц
Битовая глубина : 16 бит
Метод сжатия : С потерями
Размер потока : 593 Мбайт (6%)
Заголовок : ORT
Язык : Russian
Default : Нет
Forced : Нет
Аудио #4
Идентификатор : 5
Формат : AC-3
Формат/Информация : Audio Coding 3
Расширение режима : CM (complete main)
Параметр Endianness формата : Big
Идентификатор кодека : A_AC3
Продолжительность : 2 ч. 9 м.
Вид битрейта : Постоянный
Битрейт : 448 Кбит/сек
Каналы : 6 каналов
Расположение каналов : Front: L C R, Side: L R, LFE
Частота : 48,0 КГц
Битовая глубина : 16 бит
Метод сжатия : С потерями
Размер потока : 415 Мбайт (4%)
Заголовок : Kinomania
Язык : Russian
Default : Нет
Forced : Нет
Аудио #5
Идентификатор : 9
Формат : AC-3
Формат/Информация : Audio Coding 3
Расширение режима : CM (complete main)
Параметр Endianness формата : Big
Идентификатор кодека : A_AC3
Продолжительность : 2 ч. 9 м.
Вид битрейта : Постоянный
Битрейт : 640 Кбит/сек
Каналы : 6 каналов
Расположение каналов : Front: L C R, Side: L R, LFE
Частота : 48,0 КГц
Битовая глубина : 16 бит
Метод сжатия : С потерями
Размер потока : 593 Мбайт (6%)
Заголовок : Original
Язык : English
Default : Нет
Forced : Нет
Текст #1
Идентификатор : 6
Формат : UTF-8
Идентификатор кодека : S_TEXT/UTF8
Идентификатор кодека/Информация : UTF-8 Plain Text
Заголовок : Forced
Язык : Russian
Default : Да
Forced : Нет
Текст #2
Идентификатор : 7
Формат : UTF-8
Идентификатор кодека : S_TEXT/UTF8
Идентификатор кодека/Информация : UTF-8 Plain Text
Заголовок : Full
Язык : Russian
Default : Нет
Forced : Нет
Текст #3
Идентификатор : 8
Формат : UTF-8
Идентификатор кодека : S_TEXT/UTF8
Идентификатор кодека/Информация : UTF-8 Plain Text
Заголовок : Full
Язык : English
Default : Нет
Forced : Нет
Меню
00:00:00.000 : en: Legend Of The Scorpion King
00:04:41.490 : en: The Family O'Connell
00:10:03.520 : en: Visions Of The Past
00:13:33.396 : en: The Bracelet Of Anubis
00:17:03.898 : en: The Unholy Treasure
00:23:20.774 : en: Alex's New Bracelet
00:26:17.159 : en: The Siege Of O'Connell Manor
00:35:25.248 : en: Resurrection
00:42:01.686 : en: The Soldier Mummies
00:46:51.726 : en: Kidnapped
00:56:03.151 : en: Izzy's Magic Carpet
01:06:37.410 : en: Visions Of Nefertiri
01:17:00.658 : en: The Wall Of Water
01:27:33.665 : en: The Pygmy Mummies
01:35:27.639 : en: A Death In The Family
01:42:44.075 : en: Face to Face
01:47:43.791 : en: The Scorpion King
01:51:20.841 : en: To Kill A Scorpion
01:53:26.383 : en: Return To The Underworld
02:01:49.177 : en: End Credits
Сэмпл: http://www85.zippyshare.com/v/gEgN64p1/file.html

Скриншоты

Яндекс.Метрика
Рейтинг@Mail.ru