Письма с Иводзимы / Letters from Iwo Jima (2006) BDRip [H.264/720p]

 

Создавать темы 08-Май-2015 23:22

--Письма с Иводзимы / Letters from Iwo Jima (2006) BDRip [H.264/720p]--
    • Производство: USA / DreamWorks SKG, Warner Bros., Malpaso Productions
    • Жанр: драма, военный, история
    • Режиссер: Клинт Иствуд
    • Продюсер: Клинт Иствуд, Роберт Лоренц, Стивен Спилберг
    • Актеры: Кен Ватанабе, Кадзунари Ниномия, Рё Касэ, Цуёси Ихара, Сидо Накамура, Хироши Ватанабэ, Такуми Бандо, Юки Мацудзаки, Такаши Ямагути, Эйдзиро Озаки
    • Описание:
        • Другой взгляд на трагическую битву при Иводзиме, ставшую не только историческим событием, переломным моментом в ходе Тихоокеанской кампании США против Японии, но и столкновением культур и мировоззрений.
          Февраль 1945-го. Война в Европе подходила к концу, а на тихоокеанском направлении она была в самом разгаре. Островок Иводзима стал для США последним плацдармом на пути к Японии, и битва за него стала одним из самых кровопролитных сражений кампании. Этот фильм показывает нам битву за остров глазами японских солдат и офицеров, которые до последней капли крови защищали свою землю и погибли во славу Японской Империи...
- -
      Рейтинг MPAA: R - Детям до 17 лет обязательно присутствие родителей
      Продолжительность: 02:20:37
      Качество: BDRip (720p)
      Релиз группа: HDclub
      Перевод: профессиональный (многоголосый закадровый), профессиональный (двуголосый закадровый), авторский (одноголосый закадровый)
      Вид субтитров: вшитые отключаемые
      Язык субтитров: русский, украинский, английский
      Видео: AVC/H.264, 1280x536 (2,40:1), 4 500 kbps, 23.976 fps, 0.274 b/px
      Аудио # 1: АС3, 6 ch, 448 kbps, 48 000 Hz - многоголосый закадровый - «Киномания»
      Аудио # 2: АС3, 6 ch, 640 kbps, 48 000 Hz - двуголосый закадровый - П.Гланц и И.Королева
      Аудио # 3: АС3, 6 ch, 640 kbps, 48 000 Hz - одноголосый закадровый - Ю.Сербин
      Аудио # 4: АС3, 2 ch, 192 kbps, 48 000 Hz - многоголосый закадровый - «Iнтер» - Украинский
      Аудио # 5: АС3, 6 ch, 640 kbps, 48 000 Hz - оригинальный (Japanese)
-

MediaInfo

        Код:
        Общее
        Уникальный идентификатор : 228125862832360541956060806552314586870 (0xAB9F716A883BF645A323B64B304A26F6)
        Полное имя : F:\[2006] Письма с Иводзимы [BDRip] [720p].mkv
        Формат : Matroska
        Версия формата : Version 4 / Version 2
        Размер файла : 6,94 Гбайт
        Продолжительность : 2 ч. 20 м.
        Общий поток : 7063 Кбит/сек
        Название фильма : Письма с Иводзимы / Letters from Iwo Jima (2006) BDRip [720p]
        Дата кодирования : UTC 2015-05-08 14:18:48
        Программа кодирования : mkvmerge v7.8.0 ('River Man') 32bit built on Mar 27 2015 16:18:02
        Библиотека кодирования : libebml v1.3.1 + libmatroska v1.4.2
        DURATION : 02:19:51.016000000
        NUMBER_OF_FRAMES : 944
        NUMBER_OF_BYTES : 31391
        _STATISTICS_WRITING_APP : mkvmerge v7.8.0 ('River Man') 32bit built on Mar 27 2015 16:18:02
        _STATISTICS_WRITING_DATE_UTC : 2015-05-08 14:18:48
        _STATISTICS_TAGS : BPS DURATION NUMBER_OF_FRAMES NUMBER_OF_BYTES
        Видео
        Идентификатор : 1
        Формат : AVC
        Формат/Информация : Advanced Video Codec
        Профиль формата : [email protected]
        Параметр CABAC формата : Да
        Параметр ReFrames формата : 12 кадров
        Идентификатор кодека : V_MPEG4/ISO/AVC
        Продолжительность : 2 ч. 20 м.
        Битрейт : 4500 Кбит/сек
        Ширина : 1280 пикселей
        Высота : 536 пикселей
        Соотношение сторон : 2,40:1
        Режим частоты кадров : Постоянный
        Частота кадров : 23,976 кадра/сек
        Цветовое пространство : YUV
        Субдискретизация насыщенности : 4:2:0
        Битовая глубина : 8 бит
        Тип развёртки : Прогрессивная
        Бит/(Пиксели*Кадры) : 0.274
        Размер потока : 4,29 Гбайт (62%)
        Заголовок : [2006] Письма с Иводзимы / Letters from Iwo Jima [BDRip] [720p]
        Библиотека кодирования : x264 core 144 r2525 40bb568
        Настройки программы : cabac=1 / ref=12 / deblock=1:-3:-3 / analyse=0x3:0x113 / me=umh / subme=10 / psy=1 / psy_rd=1.00:0.00 / mixed_ref=1 / me_range=48 / chroma_me=1 / trellis=2 / 8x8dct=1 / cqm=1 / deadzone=21,11 / fast_pskip=0 / chroma_qp_offset=-1 / threads=6 / lookahead_threads=1 / sliced_threads=0 / nr=0 / decimate=1 / interlaced=0 / bluray_compat=0 / constrained_intra=0 / bframes=8 / b_pyramid=2 / b_adapt=2 / b_bias=0 / direct=3 / weightb=1 / open_gop=0 / weightp=2 / keyint=230 / keyint_min=23 / scenecut=40 / intra_refresh=0 / rc_lookahead=40 / rc=2pass / mbtree=0 / bitrate=4500 / ratetol=1.0 / qcomp=0.60 / qpmin=2 / qpmax=48 / qpstep=4 / cplxblur=20.0 / qblur=0.5 / vbv_maxrate=62500 / vbv_bufsize=78125 / nal_hrd=none / filler=0 / ip_ratio=1.00 / pb_ratio=1.00 / aq=3:0.65
        Язык : English
        Default : Да
        Forced : Нет
        DURATION : 02:20:37.429000000
        NUMBER_OF_FRAMES : 202296
        NUMBER_OF_BYTES : 4746058088
        _STATISTICS_WRITING_APP : mkvmerge v7.8.0 ('River Man') 32bit built on Mar 27 2015 16:18:02
        _STATISTICS_WRITING_DATE_UTC : 2015-05-08 14:18:48
        _STATISTICS_TAGS : BPS DURATION NUMBER_OF_FRAMES NUMBER_OF_BYTES
        Аудио #1
        Идентификатор : 2
        Формат : AC-3
        Формат/Информация : Audio Coding 3
        Расширение режима : CM (complete main)
        Параметр Endianness формата : Big
        Идентификатор кодека : A_AC3
        Продолжительность : 2 ч. 20 м.
        Вид битрейта : Постоянный
        Битрейт : 448 Кбит/сек
        Каналы : 6 каналов
        Расположение каналов : Front: L C R, Side: L R, LFE
        Частота : 48,0 КГц
        Битовая глубина : 16 бит
        Метод сжатия : С потерями
        Размер потока : 451 Мбайт (6%)
        Заголовок : Многоголосый закадровый - «Киномания»
        Язык : Russian
        Default : Да
        Forced : Нет
        Аудио #2
        Идентификатор : 3
        Формат : AC-3
        Формат/Информация : Audio Coding 3
        Расширение режима : CM (complete main)
        Параметр Endianness формата : Big
        Идентификатор кодека : A_AC3
        Продолжительность : 2 ч. 20 м.
        Вид битрейта : Постоянный
        Битрейт : 640 Кбит/сек
        Каналы : 6 каналов
        Расположение каналов : Front: L C R, Side: L R, LFE
        Частота : 48,0 КГц
        Битовая глубина : 16 бит
        Метод сжатия : С потерями
        Размер потока : 644 Мбайт (9%)
        Заголовок : Двуголосый закадровый - П.Гланц и И.Королева
        Язык : Russian
        Default : Нет
        Forced : Нет
        Аудио #3
        Идентификатор : 4
        Формат : AC-3
        Формат/Информация : Audio Coding 3
        Расширение режима : CM (complete main)
        Параметр Endianness формата : Big
        Идентификатор кодека : A_AC3
        Продолжительность : 2 ч. 20 м.
        Вид битрейта : Постоянный
        Битрейт : 640 Кбит/сек
        Каналы : 6 каналов
        Расположение каналов : Front: L C R, Side: L R, LFE
        Частота : 48,0 КГц
        Битовая глубина : 16 бит
        Метод сжатия : С потерями
        Размер потока : 644 Мбайт (9%)
        Заголовок : Одноголосый закадровый - Ю.Сербин
        Язык : Russian
        Default : Нет
        Forced : Нет
        Аудио #4
        Идентификатор : 5
        Формат : AC-3
        Формат/Информация : Audio Coding 3
        Расширение режима : CM (complete main)
        Параметр Endianness формата : Big
        Идентификатор кодека : A_AC3
        Продолжительность : 2 ч. 20 м.
        Вид битрейта : Постоянный
        Битрейт : 192 Кбит/сек
        Каналы : 2 канала
        Расположение каналов : Front: L R
        Частота : 48,0 КГц
        Битовая глубина : 16 бит
        Метод сжатия : С потерями
        Размер потока : 193 Мбайт (3%)
        Заголовок : Многоголосый закадровый - «Iнтер»
        Язык : Ukrainian
        Default : Нет
        Forced : Нет
        Аудио #5
        Идентификатор : 6
        Формат : AC-3
        Формат/Информация : Audio Coding 3
        Расширение режима : CM (complete main)
        Параметр Endianness формата : Big
        Идентификатор кодека : A_AC3
        Продолжительность : 2 ч. 20 м.
        Вид битрейта : Постоянный
        Битрейт : 640 Кбит/сек
        Каналы : 6 каналов
        Расположение каналов : Front: L C R, Side: L R, LFE
        Частота : 48,0 КГц
        Битовая глубина : 16 бит
        Метод сжатия : С потерями
        Размер потока : 644 Мбайт (9%)
        Заголовок : Оригинальный
        Язык : Japanese
        Default : Нет
        Forced : Нет
        Текст #1
        Идентификатор : 7
        Формат : UTF-8
        Идентификатор кодека : S_TEXT/UTF8
        Идентификатор кодека/Информация : UTF-8 Plain Text
        Заголовок : Russian - «Киномания»
        Язык : Russian
        Default : Нет
        Forced : Нет
        Текст #2
        Идентификатор : 8
        Формат : UTF-8
        Идентификатор кодека : S_TEXT/UTF8
        Идентификатор кодека/Информация : UTF-8 Plain Text
        Заголовок : Russian - R5
        Язык : Russian
        Default : Нет
        Forced : Нет
        Текст #3
        Идентификатор : 9
        Формат : UTF-8
        Идентификатор кодека : S_TEXT/UTF8
        Идентификатор кодека/Информация : UTF-8 Plain Text
        Заголовок : Ukrainian - R5
        Язык : Ukrainian
        Default : Нет
        Forced : Нет
        Текст #4
        Идентификатор : 10
        Формат : UTF-8
        Идентификатор кодека : S_TEXT/UTF8
        Идентификатор кодека/Информация : UTF-8 Plain Text
        Заголовок : English
        Язык : English
        Default : Нет
        Forced : Нет
        Меню
        00:00:00.000 : en:We Soldiers Dig
        00:05:12.145 : en:Kuribiyashi's Arrival
        00:10:40.640 : en:Coordination for Real War
        00:13:15.628 : en:Embarassments
        00:17:18.329 : en:Nishi's Honest Opinion
        00:23:44.381 : en:Change in Strategy
        00:27:26.228 : en:A Kempeitai Among Us
        00:31:59.584 : en:Your Dad Will Come Home
        00:37:59.861 : en:Until We Are Dead
        00:41:05.922 : en:Enemy Bombs
        00:47:07.658 : en:Address to the Troops
        00:51:15.698 : en:Belts From Home
        00:54:13.083 : en:Emptying the Pot
        00:57:00.500 : en:Enemy Landing
        01:00:20.450 : en:Life and Death Orders
        01:04:22.692 : en:Die with Honor
        01:09:10.813 : en:Inflamed
        01:11:04.177 : en:Run for Motoyama
        01:13:53.220 : en:At Sword's Point
        01:17:02.660 : en:Who's In Charge Here?
        01:22:35.159 : en:No Reinforcements
        01:24:57.801 : en:Questioning Sam
        01:28:59.042 : en:Shimizu's Disgrace
        01:34:18.111 : en:Farewell Party
        01:37:01.024 : en:Just a Letter
        01:38:59.976 : en:Nishi's Farewell
        01:45:49.260 : en:Surrender with Me
        01:50:14.691 : en:Let This Be a Lesson
        01:55:28.922 : en:You Look Familiar
        01:58:44.951 : en:Song From the Homeland
        02:03:17.181 : en:Final Attack
        02:07:05.243 : en:Still Japan
        02:13:24.205 : en:Rediscovered Voices; End Credits

Награды и премии

Оскар, 2007 год
Победитель (1):
*** Лучший монтаж звука
Номинации (3):
*** Лучший фильм
*** Лучший режиссер (Клинт Иствуд)
*** Лучший оригинальный сценарий
Золотой глобус, 2007 год
Победитель (1):
*** Лучший фильм на иностранном языке
Номинации (1):
*** Лучший режиссер (Клинт Иствуд)
Сатурн, 2007 год
Номинации (1):
*** Лучший иностранный фильм

Интересные факты

*** Первоначально Клинт Иствуд хотел назвать фильм «Красное солнце, черный песок».
*** Фильм представляет собой японскую часть дилогии, съёмки которого проходили также на Иводзиме практически в то же время; члены съёмочных групп встречались и сотрудничали друг с другом, но официально лишь один человек снялся в обоих фильмах.
*** Работая над ролью, Кен Ватанабе прочитал все письма, посланные с Иводзимы своей семье генералом императорской японской армии Тадамичи Курибаяши.
*** Фильм поставлен по книге, составленной из писем генерала императорской японской армии Тадамичи Курибаяши, возглавлявшем оборону Иводзимы (в фильме его роль играет Кен Ватанабе).
*** В роли японского военного внедорожника снимался ГАЗ-69А, выпускавшийся с 1952 по 1972 год.
Скриншоты:
Яндекс.Метрика
Рейтинг@Mail.ru