Самолеты / Planes (2013)[Мультфильм, комедия, семейный, полнометражный BDRip-AVC] от ExKinoRay | iTunes Russian

 

Создавать темы 03-Дек-2013 08:26

Информация о фильме
Название: Самолеты
Оригинальное название: Planes
Год выпуска: 2013
Жанр: Мультфильм, комедия, семейный, полнометражный
Выпущено: США, Walt Disney
Режиссер: Клэй Холл
В ролях: Кери Расселл, Джон Крайер, Карлос Алазраки
О фильме: Забавная история о похождениях винтового самолетика в мире современных воздушных кораблей. Маленький самолетик оказывается среди больших крылатых машин, умеющих неподражаемо рассекать воздух и выделяющихся современным дизайном. Самолетик чувствует себя неловко в их обществе. Они же относятся к нему по-разному: кто-то с иронией, а кто-то с заботой.

Файл
Качество: BDRip (AVC)
Видео: MPEG-4 AVC, 2817 Кбит/с, 1024x576, 23.976 кадр/с
Аудио: Русский (AC3, 6 ch, 384 Кбит/с), английский (AC3, 6 ch, 448 Кбит/с)
Размер: 2.34 ГБ
Продолжительность: 01:31:35
Перевод: Дублированный (iTunes Russian)
Субтитры: Английские

Инфо-файл

Общее
Уникальный идентификатор : 242443060446850903330888071522775789280 (0xB664D5C20EF8D87FA3C30A541178EEE0)
Полное имя : C:ЗагрузкиSamoleti.2013.x264.BDRip.(AVC).ExKinoRay.mkv
Формат : Matroska
Версия формата : Version 2
Размер файла : 2,34 Гбайт
Продолжительность : 1 ч. 31 м.
Общий поток : 3650 Кбит/сек
Название фильма : Самолеты. 2013. Rip by: ollan
Дата кодирования : UTC 2013-12-02 20:28:59
Программа кодирования : mkvmerge v5.6.0 ('Kenya Kane') built on May 27 2012 16:44:04
Библиотека кодирования : libebml v1.2.3 + libmatroska v1.3.0
Видео
Идентификатор : 1
Формат : AVC
Формат/Информация : Advanced Video Codec
Профиль формата : [email protected]
Параметр CABAC формата : Да
Параметр ReFrames формата : 9 кадров
Идентификатор кодека : V_MPEG4/ISO/AVC
Продолжительность : 1 ч. 31 м.
Битрейт : 2817 Кбит/сек
Ширина : 1024 пикселя
Высота : 576 пикселей
Соотношение сторон : 16:9
Режим частоты кадров : Постоянный
Частота кадров : 23,976 кадра/сек
Цветовое пространство : YUV
Субдискретизация насыщенности : 4:2:0
Битовая глубина : 8 бит
Тип развёртки : Прогрессивная
Бит/(Пиксели*Кадры) : 0.199
Размер потока : 1,76 Гбайт (75%)
Библиотека кодирования : x264 core 125 r2200 999b753
Настройки программы : cabac=1 / ref=9 / deblock=1:-2:-2 / analyse=0x3:0x133 / me=umh / subme=11 / psy=1 / psy_rd=1.00:0.10 / mixed_ref=1 / me_range=32 / chroma_me=1 / trellis=2 / 8x8dct=1 / cqm=0 / deadzone=21,11 / fast_pskip=0 / chroma_qp_offset=-3 / threads=12 / lookahead_threads=2 / sliced_threads=0 / nr=0 / decimate=0 / interlaced=0 / bluray_compat=0 / constrained_intra=0 / bframes=11 / b_pyramid=2 / b_adapt=2 / b_bias=0 / direct=3 / weightb=1 / open_gop=0 / weightp=2 / keyint=240 / keyint_min=23 / scenecut=40 / intra_refresh=0 / rc_lookahead=40 / rc=2pass / mbtree=1 / bitrate=2817 / ratetol=1.0 / qcomp=0.60 / qpmin=0 / qpmax=69 / qpstep=4 / cplxblur=20.0 / qblur=0.5 / vbv_maxrate=5000 / vbv_bufsize=62500 / nal_hrd=none / ip_ratio=1.40 / aq=1:1.00
Default : Да
Forced : Нет
Аудио #1
Идентификатор : 2
Формат : AC-3
Формат/Информация : Audio Coding 3
Расширение режима : CM (complete main)
Параметр Endianness формата : Big
Идентификатор кодека : A_AC3
Продолжительность : 1 ч. 31 м.
Вид битрейта : Постоянный
Битрейт : 384 Кбит/сек
Каналы : 6 каналов
Расположение каналов : Front: L C R, Side: L R, LFE
Частота : 48,0 КГц
Битовая глубина : 16 бит
Метод сжатия : С потерями
Размер потока : 252 Мбайт (11%)
Заголовок : Дублированный (iTunes Russian)
Язык : Russian
Default : Да
Forced : Да
Аудио #2
Идентификатор : 3
Формат : AC-3
Формат/Информация : Audio Coding 3
Расширение режима : CM (complete main)
Параметр Endianness формата : Big
Идентификатор кодека : A_AC3
Продолжительность : 1 ч. 31 м.
Вид битрейта : Постоянный
Битрейт : 448 Кбит/сек
Каналы : 6 каналов
Расположение каналов : Front: L C R, Side: L R, LFE
Частота : 48,0 КГц
Битовая глубина : 16 бит
Метод сжатия : С потерями
Размер потока : 293 Мбайт (12%)
Язык : English
Default : Нет
Forced : Нет
Текст #1
Идентификатор : 4
Формат : UTF-8
Идентификатор кодека : S_TEXT/UTF8
Идентификатор кодека/Информация : UTF-8 Plain Text
Заголовок : English (Full)
Язык : English
Default : Нет
Forced : Нет
Текст #2
Идентификатор : 5
Формат : UTF-8
Идентификатор кодека : S_TEXT/UTF8
Идентификатор кодека/Информация : UTF-8 Plain Text
Заголовок : English (SDH)
Язык : English
Default : Нет
Forced : Нет
Текст #3
Идентификатор : 6
Формат : UTF-8
Идентификатор кодека : S_TEXT/UTF8
Идентификатор кодека/Информация : UTF-8 Plain Text
Заголовок : English (SDH-Colored)
Язык : English
Default : Нет
Forced : Нет
Меню
00:00:00.000 : en:Chapter 00
00:04:41.990 : en:Chapter 01
00:07:23.234 : en:Chapter 02
00:09:04.293 : en:Chapter 03
00:14:38.085 : en:Chapter 04
00:17:30.549 : en:Chapter 05
00:24:58.872 : en:Chapter 06
00:30:10.767 : en:Chapter 07
00:36:28.185 : en:Chapter 08
00:40:37.517 : en:Chapter 09
00:42:51.193 : en:Chapter 10
00:48:07.801 : en:Chapter 11
00:51:37.802 : en:Chapter 12
00:56:22.378 : en:Chapter 13
01:00:06.143 : en:Chapter 14
01:01:59.923 : en:Chapter 15
01:07:05.312 : en:Chapter 16
01:10:13.041 : en:Chapter 17
01:12:27.133 : en:Chapter 18
01:16:26.914 : en:Chapter 19

Скриншоты

Яндекс.Метрика
Рейтинг@Mail.ru