Сбрось маму с поезда / Throw Momma from the Train (Денни де Вито / Danny De Vito) [1987 г., комедия, криминал, BDRip-AVC] AVO (Михалёв)

 

Создавать темы 08-Май-2015 17:46

Сбрось маму с поезда / Throw Momma from the Train
Год выпуска: 1987
Производство: США
Жанр: комедия, криминал
Продолжительность: 01:27:41
Перевод: Авторский (одноголосый, закадровый) Михалёв
Режиссер: Денни де Вито / Danny De Vito
В ролях: Дэнни де Вито, Билли Кристал, Ким Грайст, Энн Рэмси, Кейт Малгрю, Бренфорд Марсалис, Роб Райнер, Брюс Кирби, Джои ДеПинто, Энни Росс, Рэй Бирк, Опра Уинфри, Оливия Браун, Филип Перлман, Стью Сильвер, Дж. Алан Томас, Рэндолл Миллер, Андре Рози Браун, Тони Чикконе
Описание: Оказывается, даже у столь разных людей может быть что-то общее. Объединяющим мотивом является желание избавиться, причем самым действенным способом, от близкого человека. Один хочет убить свою бывшую жену, которая все еще умудряется превращать его жизнь в ад, второй видит сны о свободной радостной жизни, которым не суждено сбыться из-за буйной, деспотичной мамаши, продолжающей шпынять своего сына, не обращая внимания на его уже совсем не юный возраст. Им кажется, что в такой ситуации лучшим решением избежать наказания — это поменяться убийствами…
Сэмпл ,
Качество видео: BDRip-AVC
Контейнер: MKV
Видео кодек: H.264
Аудио кодек: AC3
Видео: 3548 Kbps, 1056*572 pixels, 16:9, 23.976 fps
Аудио : AC3, 448 Kbps, 2 channels, 48.0 KHz, 16 bits - Михалёв

Media Info

I:\PIRAT.CA\РАЗДАЧИ\Сбрось маму с поезда.1987.BDRip-AVC.mkv
General
Unique ID : 191248172685323354156979769106415063750 (0x8FE10EEA05C4FCDEB189E2B572F592C6)
Complete name : I:\PIRAT.CA\РАЗДАЧИ\Сбрось маму с поезда.1987.BDRip-AVC.mkv
Format : Matroska
Format version : Version 4 / Version 2
File size : 2.45 GiB
Duration : 1h 27mn
Overall bit rate : 3 997 Kbps
Encoded date : UTC 2015-05-07 18:15:21
Writing application : mkvmerge v6.1.0 ('Old Devil') built on Mar 4 2013 09:10:42
Writing library : libebml v1.3.0 + libmatroska v1.4.0
Video #1
ID : 1
Format : AVC
Format/Info : Advanced Video Codec
Format profile : [email protected]
Format settings, CABAC : Yes
Format settings, ReFrames : 13 frames
Codec ID : V_MPEG4/ISO/AVC
Duration : 1h 27mn
Bit rate : 3 548 Kbps
Width : 1 056 pixels
Height : 572 pixels
Display aspect ratio : 16:9
Frame rate : 23.976 fps
Color space : YUV
Chroma subsampling : 4:2:0
Bit depth : 8 bits
Scan type : Progressive
Bits/(Pixel*Frame) : 0.245
Stream size : 2.13 GiB (87%)
Writing library : x264 core 130 r2273 b3065e6
Encoding settings : cabac=1 / ref=13 / deblock=1:-3:-3 / analyse=0x3:0x133 / me=umh / subme=11 / psy=1 / psy_rd=1.00:0.15 / mixed_ref=1 / me_range=64 / chroma_me=1 / trellis=2 / 8x8dct=1 / cqm=0 / deadzone=21,11 / fast_pskip=0 / chroma_qp_offset=-3 / threads=12 / lookahead_threads=2 / sliced_threads=0 / nr=0 / decimate=0 / interlaced=0 / bluray_compat=0 / constrained_intra=0 / bframes=8 / b_pyramid=2 / b_adapt=2 / b_bias=0 / direct=3 / weightb=1 / open_gop=0 / weightp=2 / keyint=250 / keyint_min=23 / scenecut=40 / intra_refresh=0 / rc=2pass / mbtree=0 / bitrate=3548 / ratetol=1.0 / qcomp=0.60 / qpmin=0 / qpmax=69 / qpstep=4 / cplxblur=20.0 / qblur=0.5 / ip_ratio=1.40 / pb_ratio=1.30 / aq=1:1.00
Audio #2
ID : 2
Format : AC-3
Format/Info : Audio Coding 3
Mode extension : CM (complete main)
Codec ID : A_AC3
Duration : 1h 27mn
Bit rate mode : Constant
Bit rate : 448 Kbps
Channel(s) : 2 channels
Channel positions : Front: L R
Sampling rate : 48.0 KHz
Bit depth : 16 bits
Compression mode : Lossy
Stream size : 281 MiB (11%)

log x.264

x264 [info]: frame I:1044  Avg QP:17.89  size: 89113
x264 [info]: frame P:26239 Avg QP:20.33 size: 33286
x264 [info]: frame B:98876 Avg QP:21.95 size: 13822
x264 [info]: consecutive B-frames: 2.2% 2.3% 7.5% 14.8% 16.6% 39.7% 7.2% 4.8% 5.0%
x264 [info]: mb I I16..4: 8.7% 76.6% 14.8%
x264 [info]: mb P I16..4: 0.5% 16.9% 1.0% P16..4: 31.6% 35.8% 12.0% 1.3% 0.1% skip: 0.8%
x264 [info]: mb B I16..4: 0.1% 1.7% 0.1% B16..8: 39.7% 22.2% 3.7% direct: 7.6% skip:24.9% L0:46.2% L1:42.0% BI:11.8%
x264 [info]: 8x8 transform intra:89.6% inter:57.8%
x264 [info]: direct mvs spatial:98.8% temporal:1.2%
x264 [info]: coded y,uvDC,uvAC intra: 96.4% 79.3% 45.1% inter: 38.1% 24.4% 4.5%
x264 [info]: i16 v,h,dc,p: 44% 7% 14% 35%
x264 [info]: i8 v,h,dc,ddl,ddr,vr,hd,vl,hu: 9% 7% 10% 10% 13% 13% 12% 12% 13%
x264 [info]: i4 v,h,dc,ddl,ddr,vr,hd,vl,hu: 15% 7% 3% 8% 15% 16% 13% 12% 11%
x264 [info]: i8c dc,h,v,p: 36% 27% 20% 17%
x264 [info]: Weighted P-Frames: Y:14.8% UV:5.9%
x264 [info]: ref P L0: 36.8% 10.6% 19.1% 7.1% 6.5% 4.4% 4.3% 2.2% 2.2% 1.7% 1.8% 1.4% 1.5% 0.4% 0.0%
x264 [info]: ref B L0: 60.6% 14.5% 7.7% 4.4% 3.2% 2.8% 2.2% 1.4% 1.2% 1.1% 0.6% 0.3%
x264 [info]: ref B L1: 89.8% 10.2%
x264 [info]: kb/s:3547.07

Скриншоты

Яндекс.Метрика
Рейтинг@Mail.ru