Черный дождь / Black Rain (Ридли Скотт)[1989,боевик, драма, криминал, BDRip-AVC] от 0ptimus | P, A

 

Создавать темы 03-Дек-2013 03:28

Информация о фильме
Название: Черный дождь
Оригинальное название: Black Rain
Год выхода: 1989
Жанр: боевик, драма, криминал
Режиссер: Ридли Скотт
В ролях: Майкл Дуглас, Энди Гарсиа, Кэн Такакура, Кейт Кэпшоу, Юсаку Мацуда, Сигэру Кояма, Джон Спенсер, Гуц Исимацу, Юя Утида, Томисабуро Вакаяма, Миюки Оно, Луис Гузман, Джон Костелло, Стивен Рут, Ричард Риле, Брюс Кацман, Эдмунд Икеда, Клем Касерта, Тим Келлехер, Джордж Кайл, Вонди Куртис-Холл, Джо Перс, Луис Кантарини, Даг Ясуда, Тошио Сато, Дзюн Кунимура, Рой К. Огата, Широ Оиши, Тору Танака, Горо Саша, Даизуке Авадзи, Кион Янг, Джим Ишида, Сетаро Хаяши, Тоширо Обата, Мичико Цусима, Линда Джиллен, Джон Готэй, Кен Кенсей, Джосип Элик, Митчел Бар, Брюс Лок, Крис Нельсон Норрис, Селия Ксавьер
О фильме:
Двум нью-йоркским полицейским попадает в руки безжалостный убийца, принадлежащий к японской мафии-якудза. Партнерам предстоит эскортировать преступника в Осаку, где его ждет суд. Но на японской земле злодею удается скрыться. Герои вместе с японским детективом бросаются на его поиски и оказываются втянутыми в кровавую войну гангстерских кланов.

Страна: США
Студия: Paramount Pictures, Jaffe-Lansing, Pegasus Film Partners
Продолжительность: 02:05:18
Перевод: Профессиональный (многоголосый закадровый), авторский (одноголосый закадровый)
Файл
Кодек: h.264
Качество: BDRip-AVC
Видео: 2060 Кбит/с, 1024x426, 23.976 кадр/с
Звук:
• №1: Русский (АС3, 6 ch, 384 Кбит/с) Профессиональный многоголосый [Киномания]
• №2: Русский (АС3, 2 ch, 192 Кбит/с) Профессиональный многоголосый [НТВ (VHS)]
• №3: Русский (АС3, 6 ch, 384 Кбит/с) Авторский одноголосый [Андрей Гаврилов]
• №4: Английский (АС3, 6 ch, 384 Кбит/с)
Отдельно:
• №5: Русский (АС3, 2 ch, 192 Кбит/с) Профессиональный многоголосый [Премьер Видео]
• №6: Русский (АС3, 6 ch, 384 Кбит/с) Профессиональный многоголосый [UPR]
• №7: Русский (АС3, 2 ch, 192 Кбит/с) Авторский одноголосый [Юрий Медведев]
• №8: Русский (АС3, 6 ch, 384 Кбит/с) Авторский одноголосый [Михаил Яроцкий (kyberpunk)]
• №9: Русский (АС3, 2 ch, 192 Кбит/с) Авторский одноголосый [Григорий Либергал]
Субтитры: Русские, английские
Семпл

MediaInfo

------------------------------------------------------------------------
x264 [info]: frame I:1592 Avg QP:16.18 size: 61695
x264 [info]: frame P:40290 Avg QP:19.17 size: 23231
x264 [info]: frame B:138373 Avg QP:21.11 size: 6517
------------------------------------------------------------------------
Полное имя : Black.Rain.1989.x264.BDRip.(AVC).0ptimus.mkv
Формат : Matroska
Версия формата : Version 4 / Version 2
Размер файла : 2,98 Гбайт
Продолжительность : 2 ч. 5 м.
Общий поток : 3407 Кбит/сек
Название фильма : Черный Дождь | Black Rain [1989] -=BDRip (AVC) by 0ptimus=-
Дата кодирования : UTC 2013-12-01 13:30:40
Программа кодирования : mkvmerge v6.1.0 ('Old Devil') built on Mar 2 2013 14:32:37
Библиотека кодирования : libebml v1.3.0 + libmatroska v1.4.0
Видео
Идентификатор : 1
Формат : AVC
Формат/Информация : Advanced Video Codec
Профиль формата : [email protected]
Параметр CABAC формата : Да
Параметр ReFrames формата : 9 кадров
Идентификатор кодека : V_MPEG4/ISO/AVC
Продолжительность : 2 ч. 5 м.
Битрейт : 2060 Кбит/сек
Ширина : 1024 пикселя
Высота : 426 пикселей
Соотношение сторон : 2,40:1
Частота кадров : 23,976 кадра/сек
Цветовое пространство : YUV
Субдискретизация насыщенности : 4:2:0
Битовая глубина : 8 бит
Тип развёртки : Прогрессивная
Бит/(Пиксели*Кадры) : 0.197
Размер потока : 1,75 Гбайт (59%)
Заголовок : Rip by 0ptimus
Библиотека кодирования : x264 core 133 r2334 a3ac64b
Настройки программы : cabac=1 / ref=9 / deblock=1:-3:-3 / analyse=0x3:0x113 / me=umh / subme=10 / psy=1 / psy_rd=1.00:0.20 / mixed_ref=1 / me_range=32 / chroma_me=1 / trellis=2 / 8x8dct=1 / cqm=0 / deadzone=21,11 / fast_pskip=0 / chroma_qp_offset=-3 / threads=3 / lookahead_threads=1 / sliced_threads=0 / nr=0 / decimate=0 / interlaced=0 / bluray_compat=0 / constrained_intra=0 / bframes=10 / b_pyramid=2 / b_adapt=2 / b_bias=0 / direct=3 / weightb=1 / open_gop=0 / weightp=2 / keyint=240 / keyint_min=23 / scenecut=40 / intra_refresh=0 / rc_lookahead=40 / rc=2pass / mbtree=0 / bitrate=2060 / ratetol=1.0 / qcomp=0.60 / qpmin=0 / qpmax=69 / qpstep=4 / cplxblur=20.0 / qblur=0.5 / vbv_maxrate=50000 / vbv_bufsize=50000 / nal_hrd=none / ip_ratio=1.40 / pb_ratio=1.30 / aq=1:1.00
Язык : English
Аудио #1
Идентификатор : 2
Формат : AC-3
Формат/Информация : Audio Coding 3
Расширение режима : CM (complete main)
Идентификатор кодека : A_AC3
Продолжительность : 2 ч. 5 м.
Вид битрейта : Постоянный
Битрейт : 384 Кбит/сек
Каналы : 6 каналов
Расположение каналов : Front: L C R, Side: L R, LFE
Частота : 48,0 КГц
Битовая глубина : 16 бит
Метод сжатия : С потерями
Размер потока : 344 Мбайт (11%)
Заголовок : Многоголосый закадровый [Киномания] AC3 5.1 @ 384 kbps
Язык : Russian
Аудио #2
Идентификатор : 3
Формат : AC-3
Формат/Информация : Audio Coding 3
Расширение режима : CM (complete main)
Идентификатор кодека : A_AC3
Продолжительность : 2 ч. 5 м.
Вид битрейта : Постоянный
Битрейт : 192 Кбит/сек
Каналы : 2 канала
Расположение каналов : Front: L R
Частота : 48,0 КГц
Битовая глубина : 16 бит
Метод сжатия : С потерями
Размер потока : 172 Мбайт (6%)
Заголовок : Многоголосый закадровый [НТВ (с VHS)] AC3 2.0 @ 192 kbps
Язык : Russian
Аудио #3
Идентификатор : 4
Формат : AC-3
Формат/Информация : Audio Coding 3
Расширение режима : CM (complete main)
Идентификатор кодека : A_AC3
Продолжительность : 2 ч. 5 м.
Вид битрейта : Постоянный
Битрейт : 384 Кбит/сек
Каналы : 6 каналов
Расположение каналов : Front: L C R, Side: L R, LFE
Частота : 48,0 КГц
Битовая глубина : 16 бит
Метод сжатия : С потерями
Размер потока : 344 Мбайт (11%)
Заголовок : Авторский [Андрей Гаврилов] AC3 5.1 @ 384 kbps
Язык : Russian
Аудио #4
Идентификатор : 5
Формат : AC-3
Формат/Информация : Audio Coding 3
Расширение режима : CM (complete main)
Идентификатор кодека : A_AC3
Продолжительность : 2 ч. 5 м.
Вид битрейта : Постоянный
Битрейт : 384 Кбит/сек
Каналы : 6 каналов
Расположение каналов : Front: L C R, Side: L R, LFE
Частота : 48,0 КГц
Битовая глубина : 16 бит
Метод сжатия : С потерями
Размер потока : 344 Мбайт (11%)
Заголовок : AC3 5.1 @ 384 kbps
Язык : English
Текст #1
Идентификатор : 6
Формат : UTF-8
Идентификатор кодека : S_TEXT/UTF8
Идентификатор кодека/Информация : UTF-8 Plain Text
Язык : Russian
Текст #2
Идентификатор : 7
Формат : UTF-8
Идентификатор кодека : S_TEXT/UTF8
Идентификатор кодека/Информация : UTF-8 Plain Text
Язык : English
Меню
00:00:00.000 : en:Opening Credits
00:02:45.832 : en:Nice Bike
00:05:06.306 : en:Internal Affairs
00:11:11.295 : en:Table Manners
00:14:44.174 : en:Freeze
00:18:08.087 : en:My Collar, My Case
00:20:48.580 : en:Dental Work
00:23:09.846 : en:Local Heat
00:31:24.299 : en:Observers
00:46:03.010 : en:Money to Burn
00:49:09.029 : en:Ties
00:53:48.642 : en:"What'd I Say"
00:55:31.119 : en:Foreigner
00:57:25.817 : en:The Last Bullfught
01:02:02.093 : en:Just You and Me
01:07:33.424 : en:Sequins
01:12:05.362 : en:Gray Areas
01:15:14.426 : en:The Switch
01:19:33.810 : en:Missing Plate
01:23:30.922 : en:Hot Lead
01:26:43.698 : en:Suspended
01:32:43.349 : en:On the Edge
01:36:35.372 : en:Black Rain
01:40:33.026 : en:Going for It
01:47:11.258 : en:The Yakuza Code
01:51:30.308 : en:Payback
01:57:21.451 : en:Honor
02:01:32.785 : en:End Credits

Скриншоты

Релиз от:
Яндекс.Метрика
Рейтинг@Mail.ru