Зеленый Фонарь: Анимационный сериал / Green Lantern: The Animated Series [01-02x01-31 из 31] (2009-2013,мультфильм, фантастика, боевик) DVDRip-AVC | лицензия

 

Создавать темы 07-Май-2015 19:47

-«In brightest day, in blackest night, no evil shall escape his sight»-Зеленый Фонарь: Анимационный сериал / Green Lantern: The Animated Series [01-02x01-31 из 31] -- Страна: США
Год выпуска: 2009-2013
Киностудии: Cartoon Network, DC Entertainment, Warner Bros. Animation
Жанр: мультфильм, фантастика, боевик
Продолжительность: ~ 21 минута / серия
Перевод: Профессиональный (полное дублирование)
Субтитры: русские, английские
Оригинальная аудиодорожка: английский-Режиссер: Сэм Лью / Sam Liu, Рик Моралес / Rick Morales-Озвучивали: Джошуа Китон, Кевин Майкл Ричардсон, Джейсон Спайсэк, Грэй ДеЛисл, Брайан Джордж, Том Кенни, Джонатан Адамс, Сьюзан Блэйксли, Дженнифер Хейл, Йен Эберкромби...
Дублировали: Михаил Тихонов, Александр Новиков, Пётр Иващенко--Описание: Быть полицейским тяжело. Быть космическим полицейским — еще тяжелее. Присоединитесь к Зеленым Фонарям Земли — Хэлу Джордану, Гаю Гаднеру, Джону Стюарту и Кайлу Райнеру, чтобы спасти Вселенную от опаснейших врагов, среди которых коварный Синестро, когда-то бывший Зеленым Фонарем, инопланетный злодей Десперо и толпы безжалостных роботов — охотников на людей.
Возрождение Корпуса Красных Фонарей 1: Следуя данной присяге, Корпус Зеленых Фонарей патрулирует галактику, защищая ее от злоумышленников. Но в самом дальнем ее уголке, в дали от основных сил Корпуса, поднимается новое зло - Красные Фонари! Атроцитус и его преспешники Зилиус Зокс и Рейзер не остановятся ни перед чем, чтобы отомстить Хранителям Вселенной. Узнав об этом, Хэл Джордан и Киловог покидают Хранителей на борту нового экспериментального космолета "Перехватчик" и спешат на Передовую, чтобы встретиться с Красными Фонарями лицом к лицу.
Возрождение Корпуса Красных Фонарей 2: Зеленый Фонарь и его команда продолжают борьбу с коварными Красными Фонарями, но и помимо них у Вселенной хватает врагов! В крестовом походе против зла Хэл Джордан, Киловог, Айя и бросивший Красных Фонарей Рейзер вынужден сражаться с инопланетными расами, космическими монстрами и воительницами Корпуса Звездного Сапфира. А тем временем, Атроцитус и Зилиус Зокс не покладая рук готовят коварную и сверхмощную атаку на Хранителей Вселенной! Сможет ли Корпус вовремя остановить их?!
Новая угроза: После спасения Хранителей Вселенной от вторжения Красных Фонарей Хэл Джордан и его друзья из Корпуса Зеленых Фонарей - Киловог, Томар-Ре и Айя понимают, что страшная опасность угрожает всему живому! Вы увидите сражение любимых героев со смертоносными роботами - Охотниками за головами, встретитесь с культовым героем Гаем Гарднером и знаменитым злодеем Синестром, а также лицом к лицу столкнетесь с ужасным Анти-Монитором. Героям нужно во что бы то ни стало победить всех врагов, пока не стало слишком поздно!-- --Качество: DVDRip-AVC / DVD9 R5 от CP Дистрибуция
Формат: MKV
Видео: [email protected] (16:9), 25.000 fps, MPEG-4 AVC ~ 1808 kbps avg, 0.176 bit/pixel
Аудио 1: 48 kHz, Dolby AC3 2.0 192 kbps, русский
Аудио 2: 48 kHz, Dolby AC3 2.0 192 kbps, английский
Формат субтитров: SoftSub (srt)

Серии

Сезон 1:01. Берегись моей мощи... Свет Зеленого фонаря (часть первая) / Beware My Power: Part One, 11 ноября 2011
02. Берегись моей мощи... Свет Зеленого фонаря (часть вторая) / Beware My Power: Part Two, 11 ноября 2011
03. На острие Лезвия / Razer's Edge, 17 марта 2012
04. В бездну! / Into the Abyss, 24 марта 2012
05. Прямой наследник / Heir Apparent, 31 марта 2012
06. Затерянная планета / Lost Planet, 7 апреля 2012
07. Расплата / Reckoning, 14 апреля 2012
08. Страх собственной персоной / Fear Itself, 21 апреля 2012
09. В любви и на войне / In Love and War, 28 апреля 2012
10. Смена власти / Regime Change, 5 мая 2012
11. Клуб пилотов / Flight Club, 12 мая 2012
12. Вторжение / Invasion, 19 мая 2012
13. Возвращение / Homecoming, 26 мая 2012
14. Новичок / The New Guy, 29 сентября 2012
15. Перезагрузка / Reboot, 6 октября 2012
16. Паровой фонарь / Steam Lantern, 30 ноября 2012
17. Голубой цвет надежды / Blue Hope, 12 января 2013
18. Пленник Синестро / Prisoner of Sinestro, 19 января 2013
19. Потеря / Loss, 26 января 2013
20. Холодная ярость / Cold Fury, 2 февраля 2013
21. Вавилон / Babel, 9 февраля 2013
22. Любовь это война / Love Is a Battlefield, 16 февраля 2013
23. Ларфлиз / Larfleeze, 23 февраля 2013
24. Зарубцованный / Scarred, 2 марта 2013
25. Ранкс / Ranx, 9 марта 2013
26. Темная материя / Dark Matter, 16 марта 2013Сезон 2:01. Светлейший день / Brightest Day, 22 июня 2011
02. Темнейшая ночь (часть первая) / Blackest Night: Part One, июль 2009 — май 2010
03. Темнейшая ночь (часть вторая) / Blackest Night: Part Two, июль 2009 — май 2010
04. Бросок кольца
05. Глаза Десперо

MediaInfo

General
Format : Matroska
Format version : Version 4 / Version 2
File size : 331 MiB
Duration : 21mn 7s
Overall bit rate : 2 193 Kbps
Encoded date : UTC 2015-05-07 09:11:13
Writing application : mkvmerge v7.8.0 ('River Man') 64bit built on Mar 27 2015 16:31:37
Writing library : libebml v1.3.1 + libmatroska v1.4.2
_STATISTICS_WRITING_APP : mkvmerge v7.8.0 ('River Man') 64bit built on Mar 27 2015 16:31:37
_STATISTICS_WRITING_DATE_UTC : 2015-05-07 09:11:13
_STATISTICS_TAGS : BPS DURATION NUMBER_OF_FRAMES NUMBER_OF_BYTES
DURATION : 00:19:59.008000000
NUMBER_OF_FRAMES : 303
NUMBER_OF_BYTES : 11200
Video
ID : 1
Format : AVC
Format/Info : Advanced Video Codec
Format profile : [email protected]
Format settings, CABAC : Yes
Format settings, ReFrames : 8 frames
Codec ID : V_MPEG4/ISO/AVC
Duration : 21mn 7s
Bit rate : 1 808 Kbps
Width : 720 pixels
Height : 572 pixels
Display aspect ratio : 16:9
Frame rate : 25.000 fps
Color space : YUV
Chroma subsampling : 4:2:0
Bit depth : 8 bits
Scan type : Progressive
Bits/(Pixel*Frame) : 0.176
Stream size : 267 MiB (81%)
Writing library : x264 core 138 r2356 a1d3d17
Encoding settings : cabac=1 / ref=8 / deblock=1:-2:-1 / analyse=0x3:0x113 / me=umh / subme=10 / psy=1 / psy_rd=1.00:0.05 / mixed_ref=1 / me_range=32 / chroma_me=1 / trellis=2 / 8x8dct=1 / cqm=0 / deadzone=21,11 / fast_pskip=0 / chroma_qp_offset=-3 / threads=6 / lookahead_threads=1 / sliced_threads=0 / nr=0 / decimate=0 / interlaced=0 / bluray_compat=0 / constrained_intra=0 / bframes=8 / b_pyramid=2 / b_adapt=2 / b_bias=0 / direct=3 / weightb=1 / open_gop=0 / weightp=2 / keyint=250 / keyint_min=25 / scenecut=40 / intra_refresh=0 / rc=2pass / mbtree=0 / bitrate=1808 / ratetol=1.0 / qcomp=0.60 / qpmin=0 / qpmax=69 / qpstep=4 / cplxblur=20.0 / qblur=0.5 / ip_ratio=1.40 / pb_ratio=1.30 / aq=1:1.00
Language : English
Default : Yes
Forced : No
_STATISTICS_WRITING_APP : mkvmerge v7.8.0 ('River Man') 64bit built on Mar 27 2015 16:31:37
_STATISTICS_WRITING_DATE_UTC : 2015-05-07 09:11:13
_STATISTICS_TAGS : BPS DURATION NUMBER_OF_FRAMES NUMBER_OF_BYTES
DURATION : 00:21:07.240000000
NUMBER_OF_FRAMES : 31681
NUMBER_OF_BYTES : 286250353
Audio #1
ID : 2
Format : AC-3
Format/Info : Audio Coding 3
Format profile : Dolby Digital
Mode extension : CM (complete main)
Format settings, Endianness : Big
Codec ID : A_AC3
Duration : 21mn 7s
Bit rate mode : Constant
Bit rate : 192 Kbps
Channel(s) : 2 channels
Channel positions : Front: L R
Sampling rate : 48.0 KHz
Bit depth : 16 bits
Compression mode : Lossy
Stream size : 29.0 MiB (9%)
Language : Russian
Default : Yes
Forced : No
Audio #2
ID : 3
Format : AC-3
Format/Info : Audio Coding 3
Format profile : Dolby Digital
Mode extension : CM (complete main)
Format settings, Endianness : Big
Codec ID : A_AC3
Duration : 21mn 7s
Bit rate mode : Constant
Bit rate : 192 Kbps
Channel(s) : 2 channels
Channel positions : Front: L R
Sampling rate : 48.0 KHz
Bit depth : 16 bits
Compression mode : Lossy
Stream size : 29.0 MiB (9%)
Language : English
Default : No
Forced : No
Text #1
ID : 4
Format : UTF-8
Codec ID : S_TEXT/UTF8
Codec ID/Info : UTF-8 Plain Text
Language : Russian
Default : No
Forced : No
Text #2
ID : 5
Format : UTF-8
Codec ID : S_TEXT/UTF8
Codec ID/Info : UTF-8 Plain Text
Language : English
Default : No
Forced : No

Скриншоты

Яндекс.Метрика
Рейтинг@Mail.ru