Назначена награда / Серии: 1-4 из 4 (Михаил Колпахчиев) [2013, комедия, криминал, SATRip]

 

Создавать темы 07-Май-2015 19:03

--Назначена награда-- Год выпуска: 2013
Производство: КБ №1
Жанр: комедия, криминал
Продолжительность: ~0:45:00 серия
Субтитры: отсутствуют--Режиссёр: Михаил Колпахчиев--В ролях: Наталья Дворецкая, Иван Бровин, Егор Бакулин, Валерий Кухарешин, Сергей Селин, Алексей Нилов, Евгений Сидихин, Сергей Воробьёв, Андрей Ургант, Юрий Евдокимов, Денис Старков, Александр Солоненко, Михаил Разинкин, Алан Тамаев, Ксения Разина, Юлия Нижельская, Евгений Курилкин, Дмитрий Аршанский, Жанна Куприянова--Описание: Паша Гайтан и Олег Лялякин — рядовые сотрудниками ППС — мечтающие стать настоящими охотниками за головами и самостоятельно бороться с преступниками, особенно за приличное вознаграждение. Наступает день, когда сама судьба вынуждает их заняться этим промыслом: горе-друзей с треском выгоняют из полиции... Невероятные и опасные приключения начинаются, когда герои, сами того не подозревая, становятся участниками секретной операции. Теперь они — и мишень для бандитской группировки, и объект разработки у бывших коллег-оперативников. Друзья попадают на передовую криминальных разборок, и это без особого труда может стоить им жизни. Перестрелки, интриги, погони и порция отменного юмора -- все это ждет героев на пути к заветной награде, объявленной за поимку преступников.--Качество: SATRip--Формат: AVI
Видео кодек: XviD
Аудио кодек: AC3
Видео: 720x400 (1.80:1), 25 fps, XviD build 73 ~1511 kbps avg, 0.21 bit/pixel
Аудио: 48 kHz, AC3 Dolby Digital, 2/0 (L,R) ch, ~192 kbps--

MediaInfo

Общее
Полное имя : C:\Users\Саня\Desktop\Назначена награда_SATRip_by_SANNYa\Назначена награда_01_SATRip_by_SANNYa.avi
Формат : AVI
Формат/Информация : Audio Video Interleave
Размер файла : 550 Мбайт
Продолжительность : 44 м.
Общий поток : 1713 Кбит/сек
Программа кодирования : VirtualDubMod 1.5.10.3 | www.virtualdub-fr.org || (build 2550/release)
Библиотека кодирования : VirtualDubMod build 2550/release
Видео
Идентификатор : 0
Формат : MPEG-4 Visual
Профиль формата : Advanced [email protected]
Параметр BVOP формата : 1
Параметр QPel формата : Нет
Параметр GMC формата : Без точки перехода
Параметр матрицы формата : Выборочная
Идентификатор кодека : XVID
Идентификатор кодека/Подсказка : XviD
Продолжительность : 44 м.
Битрейт : 1511 Кбит/сек
Ширина : 720 пикселей
Высота : 400 пикселей
Соотношение сторон : 16:9
Частота кадров : 25,000 кадров/сек
Цветовое пространство : YUV
Субдискретизация насыщенности : 4:2:0
Битовая глубина : 8 бит
Тип развёртки : Прогрессивная
Метод сжатия : С потерями
Бит/(Пиксели*Кадры) : 0.210
Размер потока : 485 Мбайт (88%)
Библиотека кодирования : XviD 73
Аудио
Идентификатор : 1
Формат : AC-3
Формат/Информация : Audio Coding 3
Расширение режима : CM (complete main)
Параметр Endianness формата : Big
Идентификатор кодека : 2000
Продолжительность : 44 м.
Вид битрейта : Постоянный
Битрейт : 192 Кбит/сек
Каналы : 2 канала
Расположение каналов : Front: L R
Частота : 48,0 КГц
Битовая глубина : 16 бит
Метод сжатия : С потерями
Размер потока : 61,6 Мбайт (11%)
Выравнивание : Разделение по промежуткам
Продолжительность промежутка : 40 мс. (1,00 видеокадр)
Время предзагрузки промежутка : 500 мс.
--

Скриншоты

--
Яндекс.Метрика
Рейтинг@Mail.ru