[ Сегодня на трекере фрилич! Идет свободное скачивание без начисления Download ]

Снайпер / American Sniper (2014) BDRip 720p | iTunes

 

Создавать темы 06-Май-2015 22:37

Информация о фильме
Название: Снайпер / Американский снайпер
Оригинальное название: American Sniper
Год выхода: 2014
Жанр: боевик, драма, военный, биография
Режиссер: Клинт Иствуд
В ролях: Брэдли Купер, Сиенна Миллер, Кайл Галлнер, Бен Рид, Элиз Робертсон, Люк Саншайн, Трой Винсент, Брэндон Сальгадо, Кейр О’Доннелл, Марне Паттерсон
О фильме: Он морской пехотинец из штата Техас по имени Крис. Так сложилось, что судьба закинула его в Ирак. Там-то он и проявил себя: он побил своеобразный рекорд – убил самого большое число противников. С его «результатами» было сложно сравниться. Поэтому и назвали его иракцы дьяволом. Но кроме описания военных реалий, действий и операций, здесь приводятся воспоминания его жены – женщины, которой пришлось делить своего любимого с войной. Крис всё больше и больше привязывался не только к тем людям, с которыми ему пришлось делить скромное жильё, обед и трудности войны, но и к самой войне – к постоянной борьбе за жизнь…

Выпущено: США / Warner Bros., Village Roadshow Pictures, Mad Chance Productions
Продолжительность: 02:12:40
Озвучивание: Дублированное [iTunes]
Файл
Формат: MKV
Видео: MPEG-4 AVC, 5085 Кбит/с, 1280x534
Аудио: Русский (AC3, 6 ch, 384 Кбит/с), английский (AC3, 6 ch, 640 Кбит/с)
Размер: 5.78 ГБ
Субтитры: Английские
Скачать: Сэмпл---

Media Info

Общее
Уникальный идентификатор                 : 252209247006245108788773526579439744848 (0xBDBDBBEE6013B0BB9E6E6392D0243750)
Полное имя                               : C:American.Sniper.2014.720p.BluRay.DD5.1.x264-HDAccess.mkv
Формат                                   : Matroska
Версия формата                           : Version 2
Размер файла                             : 5,78 Гбайт
Продолжительность                        : 2 ч. 12 м.
Общий поток                              : 6233 Кбит/сек
Название фильма                          : Istrebiteli-2.Posledniy.boy.(08.seriya.iz.12).2015.WEB-DLRip.AVC.by_bog3417
Дата кодирования                         : UTC 2015-05-06 18:07:15
Программа кодирования                    : mkvmerge v7.4.0 ('Circles') 64bit built on Dec 12 2014 12:19:56
Библиотека кодирования                   : libebml v1.3.0 + libmatroska v1.4.1
_STATISTICS_WRITING_APP                  : mkvmerge v7.4.0 ('Circles') 64bit built on Dec 12 2014 12:19:56
_STATISTICS_WRITING_DATE_UTC             : 2015-05-06 18:07:15
_STATISTICS_TAGS                         : BPS DURATION NUMBER_OF_FRAMES NUMBER_OF_BYTES
DURATION                                 : 02:12:38.912000000
NUMBER_OF_FRAMES                         : 248716
NUMBER_OF_BYTES                          : 382027776
Видео
Идентификатор                            : 1
Формат                                   : AVC
Формат/Информация                        : Advanced Video Codec
Профиль формата                          : [email protected]
Параметр CABAC формата                   : Да
Параметр ReFrames формата                : 12 кадров
Идентификатор кодека                     : V_MPEG4/ISO/AVC
Продолжительность                        : 2 ч. 12 м.
Битрейт                                  : 5085 Кбит/сек
Ширина                                   : 1280 пикселей
Высота                                   : 534 пикселя
Соотношение сторон                       : 2,40:1
Режим частоты кадров                     : Постоянный
Частота кадров                           : 23,976 кадра/сек
Цветовое пространство                    : YUV
Субдискретизация насыщенности            : 4:2:0
Битовая глубина                          : 8 бит
Тип развёртки                            : Прогрессивная
Бит/(Пиксели*Кадры)                      : 0.310
Размер потока                            : 4,71 Гбайт (82%)
Библиотека кодирования                   : x264 core 142 r2431+42 c69a006 tMod [[email protected] X86_64]
Настройки программы                      : cabac=1 / ref=12 / deblock=1:-3:-3 / analyse=0x3:0x133 / me=umh / subme=11 / psy=1 / fade_compensate=0.00 / psy_rd=1.05:0.00 / mixed_ref=1 / me_range=24 / chroma_me=1 / trellis=2 / 8x8dct=1 / cqm=0 / deadzone=21,11 / fast_pskip=0 / chroma_qp_offset=-2 / threads=24 / lookahead_threads=4 / sliced_threads=0 / nr=0 / decimate=0 / interlaced=0 / bluray_compat=0 / constrained_intra=0 / fgo=0 / bframes=8 / b_pyramid=2 / b_adapt=2 / b_bias=0 / direct=3 / weightb=1 / open_gop=0 / weightp=2 / keyint=250 / keyint_min=23 / scenecut=40 / intra_refresh=0 / rc=crf / mbtree=0 / crf=15.5000 / qcomp=0.70 / qpmin=0:0:0 / qpmax=69:69:69 / qpstep=4 / ip_ratio=1.20 / pb_ratio=1.10 / aq=3:0.70 / aq-sensitivity=10.00 / aq-factor=1.00:1.00:1.00 / aq2=0 / aq3=0
Язык                                     : English
Default                                  : Да
Forced                                   : Нет
_STATISTICS_WRITING_APP                  : mkvmerge v7.4.0 ('Circles') 64bit built on Dec 12 2014 12:19:56
_STATISTICS_WRITING_DATE_UTC             : 2015-05-06 18:07:15
_STATISTICS_TAGS                         : BPS DURATION NUMBER_OF_FRAMES NUMBER_OF_BYTES
DURATION                                 : 02:12:39.827000000
NUMBER_OF_FRAMES                         : 190845
NUMBER_OF_BYTES                          : 5180539417
Аудио #1
Идентификатор                            : 2
Формат                                   : AC-3
Формат/Информация                        : Audio Coding 3
Расширение режима                        : CM (complete main)
Параметр Endianness формата              : Big
Идентификатор кодека                     : A_AC3
Продолжительность                        : 2 ч. 12 м.
Вид битрейта                             : Постоянный
Битрейт                                  : 384 Кбит/сек
Каналы                                   : 6 каналов
Расположение каналов                     : Front: L C R, Side: L R, LFE
Частота                                  : 48,0 КГц
Битовая глубина                          : 16 бит
Метод сжатия                             : С потерями
Размер потока                            : 364 Мбайт (6%)
Язык                                     : Russian
Default                                  : Да
Forced                                   : Нет
Аудио #2
Идентификатор                            : 3
Формат                                   : AC-3
Формат/Информация                        : Audio Coding 3
Расширение режима                        : CM (complete main)
Параметр Endianness формата              : Big
Идентификатор кодека                     : A_AC3
Продолжительность                        : 2 ч. 12 м.
Вид битрейта                             : Постоянный
Битрейт                                  : 640 Кбит/сек
Каналы                                   : 6 каналов
Расположение каналов                     : Front: L C R, Side: L R, LFE
Частота                                  : 48,0 КГц
Битовая глубина                          : 16 бит
Метод сжатия                             : С потерями
Размер потока                            : 607 Мбайт (10%)
Язык                                     : English
Default                                  : Нет
Forced                                   : Нет
Текст #1
Идентификатор                            : 4
Формат                                   : UTF-8
Идентификатор кодека                     : S_TEXT/UTF8
Идентификатор кодека/Информация          : UTF-8 Plain Text
Язык                                     : English
Default                                  : Нет
Forced                                   : Нет
Текст #2
Идентификатор                            : 5
Формат                                   : UTF-8
Идентификатор кодека                     : S_TEXT/UTF8
Идентификатор кодека/Информация          : UTF-8 Plain Text
Заголовок                                : SDH
Язык                                     : English
Default                                  : Нет
Forced                                   : Нет
Меню
00:00:00.000                             : en:00:00:00.000
00:10:15.240                             : en:00:10:15.240
00:18:56.927                             : en:00:18:56.927
00:28:27.581                             : en:00:28:27.581
00:39:04.425                             : en:00:39:04.425
00:50:57.638                             : en:00:50:57.638
01:00:06.728                             : en:01:00:06.728
01:07:56.447                             : en:01:07:56.447
01:28:44.027                             : en:01:28:44.027
01:37:24.714                             : en:01:37:24.714
01:45:57.351                             : en:01:45:57.351
01:54:44.002                             : en:01:54:44.002
02:04:13.363                             : en:02:04:13.363

Скриншоты:

Яндекс.Метрика
Рейтинг@Mail.ru