Снайпер / American Sniper (2014) BDRip 1080p | iTunes

 

Создавать темы 06-Май-2015 22:35

Информация о фильме
Название: Снайпер / Американский снайпер
Оригинальное название: American Sniper
Год выхода: 2014
Жанр: боевик, драма, военный, биография
Режиссер: Клинт Иствуд
В ролях: Брэдли Купер, Сиенна Миллер, Кайл Галлнер, Бен Рид, Элиз Робертсон, Люк Саншайн, Трой Винсент, Брэндон Сальгадо, Кейр О’Доннелл, Марне Паттерсон
О фильме: Он морской пехотинец из штата Техас по имени Крис. Так сложилось, что судьба закинула его в Ирак. Там-то он и проявил себя: он побил своеобразный рекорд – убил самого большое число противников. С его «результатами» было сложно сравниться. Поэтому и назвали его иракцы дьяволом. Но кроме описания военных реалий, действий и операций, здесь приводятся воспоминания его жены – женщины, которой пришлось делить своего любимого с войной. Крис всё больше и больше привязывался не только к тем людям, с которыми ему пришлось делить скромное жильё, обед и трудности войны, но и к самой войне – к постоянной борьбе за жизнь…

Выпущено: США / Warner Bros., Village Roadshow Pictures, Mad Chance Productions
Продолжительность: 02:12:40
Озвучивание: Дублированное [iTunes]
Файл
Формат: MKV
Видео: MPEG-4 AVC, 9387 Кбит/с, 1920x800
Аудио: Русский (AC3, 6 ch, 384 Кбит/с), английский (AC3, 6 ch, 640 Кбит/с)
Размер: 9.84 ГБ---

Media Info

Общее
Уникальный идентификатор                 : 233979468516678267806196498347519929479 (0xB006CE756529C8809C8CA65BF6986C87)
Полное имя                               : C:American.Sniper.2014.1080p.BluRay.DD5.1.x264-HDAccess (1).mkv
Формат                                   : Matroska
Версия формата                           : Version 2
Размер файла                             : 9,84 Гбайт
Продолжительность                        : 2 ч. 12 м.
Общий поток                              : 10,6 Мбит/сек
Название фильма                          : Istrebiteli-2.Posledniy.boy.(08.seriya.iz.12).2015.WEB-DLRip.AVC.by_bog3417
Дата кодирования                         : UTC 2015-05-06 18:15:38
Программа кодирования                    : mkvmerge v7.4.0 ('Circles') 64bit built on Dec 12 2014 12:19:56
Библиотека кодирования                   : libebml v1.3.0 + libmatroska v1.4.1
_STATISTICS_WRITING_APP                  : mkvmerge v7.4.0 ('Circles') 64bit built on Dec 12 2014 12:19:56
_STATISTICS_WRITING_DATE_UTC             : 2015-05-06 18:15:38
_STATISTICS_TAGS                         : BPS DURATION NUMBER_OF_FRAMES NUMBER_OF_BYTES
DURATION                                 : 02:03:59.643000000
NUMBER_OF_FRAMES                         : 1894
NUMBER_OF_BYTES                          : 64094
Видео
Идентификатор                            : 1
Формат                                   : AVC
Формат/Информация                        : Advanced Video Codec
Профиль формата                          : [email protected]
Параметр CABAC формата                   : Да
Параметр ReFrames формата                : 5 кадров
Идентификатор кодека                     : V_MPEG4/ISO/AVC
Продолжительность                        : 2 ч. 12 м.
Битрейт                                  : 9387 Кбит/сек
Ширина                                   : 1920 пикселей
Высота                                   : 800 пикселей
Соотношение сторон                       : 2,40:1
Режим частоты кадров                     : Постоянный
Частота кадров                           : 23,976 кадра/сек
Цветовое пространство                    : YUV
Субдискретизация насыщенности            : 4:2:0
Битовая глубина                          : 8 бит
Тип развёртки                            : Прогрессивная
Бит/(Пиксели*Кадры)                      : 0.255
Размер потока                            : 8,70 Гбайт (88%)
Библиотека кодирования                   : x264 core 146 r2538 121396c
Настройки программы                      : cabac=1 / ref=5 / deblock=1:-3:-3 / analyse=0x3:0x113 / me=umh / subme=10 / psy=1 / psy_rd=1.00:0.00 / mixed_ref=1 / me_range=16 / chroma_me=1 / trellis=2 / 8x8dct=1 / cqm=0 / deadzone=21,11 / fast_pskip=0 / chroma_qp_offset=-2 / threads=18 / lookahead_threads=3 / sliced_threads=0 / nr=0 / decimate=1 / interlaced=0 / bluray_compat=0 / constrained_intra=0 / bframes=8 / b_pyramid=2 / b_adapt=2 / b_bias=0 / direct=1 / weightb=1 / open_gop=0 / weightp=2 / keyint=240 / keyint_min=23 / scenecut=40 / intra_refresh=0 / rc_lookahead=40 / rc=crf / mbtree=0 / crf=16.0 / qcomp=0.60 / qpmin=0 / qpmax=69 / qpstep=4 / vbv_maxrate=62500 / vbv_bufsize=78125 / crf_max=0.0 / nal_hrd=none / filler=0 / ip_ratio=1.30 / pb_ratio=1.20 / aq=1:0.80
Язык                                     : English
Default                                  : Да
Forced                                   : Нет
Аудио #1
Идентификатор                            : 2
Формат                                   : AC-3
Формат/Информация                        : Audio Coding 3
Расширение режима                        : CM (complete main)
Параметр Endianness формата              : Big
Идентификатор кодека                     : A_AC3
Продолжительность                        : 2 ч. 12 м.
Вид битрейта                             : Постоянный
Битрейт                                  : 384 Кбит/сек
Каналы                                   : 6 каналов
Расположение каналов                     : Front: L C R, Side: L R, LFE
Частота                                  : 48,0 КГц
Битовая глубина                          : 16 бит
Метод сжатия                             : С потерями
Размер потока                            : 364 Мбайт (4%)
Язык                                     : Russian
Default                                  : Да
Forced                                   : Нет
Аудио #2
Идентификатор                            : 3
Формат                                   : AC-3
Формат/Информация                        : Audio Coding 3
Расширение режима                        : CM (complete main)
Параметр Endianness формата              : Big
Идентификатор кодека                     : A_AC3
Продолжительность                        : 2 ч. 12 м.
Вид битрейта                             : Постоянный
Битрейт                                  : 640 Кбит/сек
Каналы                                   : 6 каналов
Расположение каналов                     : Front: L C R, Side: L R, LFE
Частота                                  : 48,0 КГц
Битовая глубина                          : 16 бит
Метод сжатия                             : С потерями
Размер потока                            : 607 Мбайт (6%)
Язык                                     : English
Default                                  : Нет
Forced                                   : Нет
Текст #1
Идентификатор                            : 4
Формат                                   : UTF-8
Идентификатор кодека                     : S_TEXT/UTF8
Идентификатор кодека/Информация          : UTF-8 Plain Text
Язык                                     : English
Default                                  : Нет
Forced                                   : Нет
Текст #2
Идентификатор                            : 5
Формат                                   : UTF-8
Идентификатор кодека                     : S_TEXT/UTF8
Идентификатор кодека/Информация          : UTF-8 Plain Text
Заголовок                                : SDH
Язык                                     : English
Default                                  : Нет
Forced                                   : Нет
Меню
00:00:00.000                             : en:00:00:00.000
00:10:15.240                             : en:00:10:15.240
00:18:56.927                             : en:00:18:56.927
00:28:27.581                             : en:00:28:27.581
00:39:04.425                             : en:00:39:04.425
00:50:57.638                             : en:00:50:57.638
01:00:06.728                             : en:01:00:06.728
01:07:56.447                             : en:01:07:56.447
01:28:44.027                             : en:01:28:44.027
01:37:24.714                             : en:01:37:24.714
01:45:57.351                             : en:01:45:57.351
01:54:44.002                             : en:01:54:44.002
02:04:13.363                             : en:02:04:13.363
--

Скриншоты:

Яндекс.Метрика
Рейтинг@Mail.ru