[ Сегодня на трекере фрилич! Идет свободное скачивание без начисления Download ]

Сверхсилы / Powers / Сезон: 1 / Полный / Серии: 10 из 10 (Дэвид Петрарка / David Petrarca) [2015 г., фантастика, драма, криминал, ..., WEBRip] MVO (BaibaKo) + Original (Eng)

 

Создавать темы 06-Май-2015 21:07

-Сверхсилы / Powers-- Производство: США
Жанр: фантастика, драма, криминал, ...
Год выпуска: 2015 г.-Премьера (мир): 10 марта 2015, ...-Релиз:
Перевод: Профессиональный (многоголосый, закадровый)
Оригинальный аудиопоток: английский-Над релизом работали:
Перевод: vipere
Озвучка: Anna_Smile, Юлия Котурбаш, Олекса Мельник и Владимир Курдов
Монтаж: Павел Дежин
Обложка: Антон Максимов-Режиссер: Дэвид Петрарка / David Petrarca, Микаэл Саломон / Mikael Salomon, Дэвид Слэйд / David Slade, ...-В ролях: Шарлто Копли, Эдди Иззард, Мишель Форбс, Сьюзэн Хэйард, Ноа Тейлор, Логан Браунинг, Джастис Лик, Эндрю Сенсениг, Адам Годли, Филлип ДеВона ...-Описание:
Сюжет сериала разворачивается в мире, где супергерои живут среди обычных людей. Сотрудники убойного отдела Кристиан Уокер и Дина Пилгрим занимаются защитой простых людей от преступников со сверхспособностями и расследуют дела, в которых замешаны эти супергерои.-Сезон: 1
Серии: 10 из 10 серий
Продолжительность: ~ 00:50:00 мин серия-Качество видео: WEBRip
Контейнер: AVI
Видео кодек: XviD
Аудио кодек: MP3
Видео: MPEG-4 Visual at 1532 Кбит/сек: 720 x 400 (1.800) at 23.976 fps: 0.22 Бит/Пиксели
Аудио Rus: MPEG Audio at 192 Кбит/сек: 2 канала, 48,0 КГц |BaibaKo|
Аудио Eng: MPEG Audio at 192 Кбит/сек: 2 канала, 48,0 КГц |Original|
Cубтитры: отсутствуют
- Семпл-

Список серий:

  • Пилот (Pilot)
  • Как власть (Like a Power)
  • Микки Руни Больше Не Плачет (Mickey Rooney Cries No More)
  • Дьявол в мусорном мешке (Devil in a Garbage Bag)
  • Покрась чёрным (Paint It Black)
  • Рассказчик на панихиде (The Raconteur of the Funeral Circuit)
  • Ты не оно (You Are Not It)
  • Гони из сердца вон... (Aha Shake Heartbreak)
  • Уровень 13 (Level 13)
  • К чёрту установку... (F@#K the Big Chiller)
-

Media Info

Общее
Полное имя : E:\_Сериалы\_Сериалы\BaibaKo\Powers.s01.HDTVRip.XviD.BaibaKo.tv\Powers.s01e01.PROPER.WEBRip.XviD.Rus.Eng.BaibaKo.tv.avi
Формат : AVI
Формат/Информация : Audio Video Interleave
Размер файла : 702 Мбайт
Продолжительность : 50 м.
Общий поток : 1930 Кбит/сек
Программа кодирования : VirtualDubMod 1.5.10.2 (build 2540/release)
Библиотека кодирования : VirtualDubMod build 2540/release
Видео
Идентификатор : 0
Формат : MPEG-4 Visual
Профиль формата : Advanced [email protected]
Параметр BVOP формата : 2
Параметр QPel формата : Нет
Параметр GMC формата : Без точки перехода
Параметр матрицы формата : Default (H.263)
Идентификатор кодека : XVID
Идентификатор кодека/Подсказка : XviD
Продолжительность : 50 м.
Битрейт : 1532 Кбит/сек
Ширина : 720 пикселей
Высота : 400 пикселей
Соотношение сторон : 16:9
Частота кадров : 23,976 кадра/сек
Цветовое пространство : YUV
Субдискретизация насыщенности : 4:2:0
Битовая глубина : 8 бит
Тип развёртки : Прогрессивная
Метод сжатия : С потерями
Бит/(Пиксели*Кадры) : 0.222
Размер потока : 557 Мбайт (79%)
Библиотека кодирования : XviD 1.2.1 (UTC 2008-12-04)
Аудио #1
Идентификатор : 1
Формат : MPEG Audio
Версия формата : Version 1
Профиль формата : Layer 3
Режим : Joint stereo
Расширение режима : MS Stereo
Идентификатор кодека : 55
Идентификатор кодека/Подсказка : MP3
Продолжительность : 50 м.
Вид битрейта : Постоянный
Битрейт : 192 Кбит/сек
Каналы : 2 канала
Частота : 48,0 КГц
Метод сжатия : С потерями
Размер потока : 69,8 Мбайт (10%)
Выравнивание : Соединение по промежуткам
Продолжительность промежутка : 42 мс. (1,00 видеокадр)
Время предзагрузки промежутка : 504 мс.
Аудио #2
Идентификатор : 2
Формат : MPEG Audio
Версия формата : Version 1
Профиль формата : Layer 3
Режим : Joint stereo
Расширение режима : MS Stereo
Идентификатор кодека : 55
Идентификатор кодека/Подсказка : MP3
Продолжительность : 50 м.
Вид битрейта : Постоянный
Битрейт : 192 Кбит/сек
Каналы : 2 канала
Частота : 48,0 КГц
Метод сжатия : С потерями
Размер потока : 69,8 Мбайт (10%)
Выравнивание : Соединение по промежуткам
Продолжительность промежутка : 42 мс. (1,00 видеокадр)
Время предзагрузки промежутка : 504 мс.
-

Скриншот c названием фильма

-Скриншоты:
-

Еще

Яндекс.Метрика
Рейтинг@Mail.ru