Готэм / Gotham / Сезон 1 / Полный / Серии: 22 из 22 (Дэнни Кэннон / Danny Cannon) [2014г., триллер, драма, криминал, ... WEB-DLRip] MVO (BaibaKo) + Original (Eng)

 

Создавать темы 06-Май-2015 20:54

Готэм / Gotham
«The good. The evil. The beginning»
- Русское название: Готэм
Оригинальное название: Gotham
Страна: США
Год выпуска: 2014
Жанр: триллер, драма, криминал, ...-Релиз:
Перевод: Многоголосый закадровый, профессиональный
Оригинальный аудиопоток: английский-Над релизом работали:
Перевод: Янина Галицкая
Озвучка: Ольга Мотрич, Светлана Доманова, Сергей Корчак, Дмитрий Козак и Алексей Кузнецов
Монтаж: Павел Дежин
Обложка: tvblog-Премьера (мир): 22 сентября 2014-Режиссер: Дэнни Кэннон / Danny Cannon
В главных ролях: Бенжамин МакКензи, Шон Пертуи, Робин Тэйлор, Забрина Гевара, Эрин Ричардс, Донал Лог, Джада Пинкетт Смит, Дэвид Мазоуз, Камрен Бикондова, Кори Майкл Смит, ...-Описание фильма:
Новый сотрудник департамента полиции Готэма, детектив Джеймс Гордон и его напарник Харви Баллок назначаются начальником отдела полиции Готэма по расследованию убийств Сарой Эссен на самое громкое дело последних лет - убийство Томаса и Марты Уэйн. Во время расследования Гордон знакомится с сыном убитых - Брюсом Уэйном, который после смерти родителей находится под опекой своего дворецкого Альфреда. Одновременно с расследованием убийства Гордону приходится бороться с местным главарем банды Фишем Муни, а также с будущими злодеями Готэма: Селиной Кайл и Освальдом Кобблпотом. В итоге, Гордон фокусируется на дружбе с молодым Брюсом, чтобы в будущем сделать из маленького мальчика Тёмного рыцаря - защитника Готэма.-Сезон: 1
Серии: 22 из 22 серий
Продолжительность: ~ 00:49:00 мин серия-Качество видео: WEB-DLRip
Формат: AVI
Видеокодек: XviD
Аудиокодек: Mp3
Видео: MPEG-4 Visual at 1505 Кбит/сек: 720 x 400 (1.800) at 23.976 fps, 0.22 Бит/Пиксели
Аудио Rus: MPEG Audio at 192 Кбит/сек: 2 канала, 48,0 КГц |BaibaKo|
Аудио Eng: MPEG Audio at 192 Кбит/сек: 2 канала, 48,0 КГц |Original|
- -

Список серий:

  • Пилот (Pilot)
  • Селина Кайл (Selina Kyle)
  • Шароубийца (The Baloonman)
  • Аркхэм (Arkham)
  • Гадюка (Viper)
  • Дух козла отпущения (Spirit of the Goat)
  • Зонтик Пингвина (Penguin's Umbrella)
  • Маска (The Mask)
  • Харви Дент (Harvey Dent)
  • Ловкрафт (LoveCraft)
  • Парад психов (Rogues' Gallery)
  • Сорока на хвосте принесла (What the Little Bird Told Him)
  • Добро пожаловать назад, Джим Гордон! (Welcome Back, Jim Gordon)
  • Ужасный доктор Крэйн (The Fearsome Dr. Crane)
  • Пугало (The Scarecrow)
  • Слепой предсказатель (The Blind Fortune Teller)
  • Красный колпак Гуд (Red Hood)
  • У каждого есть свой Кобблпот (Everyone Has a Cobblepot)
  • Хищники (Beasts of Prey)
  • Под нож (Under the Knife)
  • Между молотом и наковальней (The Anvil or the Hammer)
  • Все счастливые семьи похожи (All Happy Families Are Alike)
-

MediaInfo:

Общее
Полное имя                               : E:\_Сериалы\_Сериалы\Готэм\Gotham.s01.BaibaKo\Gotham.s01e01.WEB-DLRip.XviD.Rus.Eng.BaibaKo.tv.avi
Формат                                   : AVI
Формат/Информация                        : Audio Video Interleave
Размер файла                             : 671 Мбайт
Продолжительность                        : 49 м.
Общий поток                              : 1902 Кбит/сек
Программа кодирования                    : VirtualDubMod 1.5.10.2 (build 2540/release)
Библиотека кодирования                   : VirtualDubMod build 2540/release
Видео
Идентификатор                            : 0
Формат                                   : MPEG-4 Visual
Профиль формата                          : Advanced [email protected]
Параметр BVOP формата                    : 2
Параметр QPel формата                    : Нет
Параметр GMC формата                     : Без точки перехода
Параметр матрицы формата                 : Default (H.263)
Идентификатор кодека                     : XVID
Идентификатор кодека/Подсказка           : XviD
Продолжительность                        : 49 м.
Битрейт                                  : 1505 Кбит/сек
Ширина                                   : 720 пикселей
Высота                                   : 400 пикселей
Соотношение сторон                       : 16:9
Частота кадров                           : 23,976 кадра/сек
Цветовое пространство                    : YUV
Субдискретизация насыщенности            : 4:2:0
Битовая глубина                          : 8 бит
Тип развёртки                            : Прогрессивная
Метод сжатия                             : С потерями
Бит/(Пиксели*Кадры)                      : 0.218
Размер потока                            : 531 Мбайт (79%)
Библиотека кодирования                   : XviD 1.2.1 (UTC 2008-12-04)
Аудио #1
Идентификатор                            : 1
Формат                                   : MPEG Audio
Версия формата                           : Version 1
Профиль формата                          : Layer 3
Режим                                    : Joint stereo
Расширение режима                        : MS Stereo
Идентификатор кодека                     : 55
Идентификатор кодека/Подсказка           : MP3
Продолжительность                        : 49 м.
Вид битрейта                             : Постоянный
Битрейт                                  : 192 Кбит/сек
Каналы                                   : 2 канала
Частота                                  : 48,0 КГц
Метод сжатия                             : С потерями
Размер потока                            : 67,7 Мбайт (10%)
Выравнивание                             : Соединение по промежуткам
Продолжительность промежутка             : 42  мс. (1,00 видеокадр)
Время предзагрузки промежутка            : 504  мс.
Аудио #2
Идентификатор                            : 2
Формат                                   : MPEG Audio
Версия формата                           : Version 1
Профиль формата                          : Layer 3
Режим                                    : Joint stereo
Расширение режима                        : MS Stereo
Идентификатор кодека                     : 55
Идентификатор кодека/Подсказка           : MP3
Продолжительность                        : 49 м.
Вид битрейта                             : Постоянный
Битрейт                                  : 192 Кбит/сек
Каналы                                   : 2 канала
Частота                                  : 48,0 КГц
Метод сжатия                             : С потерями
Размер потока                            : 67,7 Мбайт (10%)
Выравнивание                             : Соединение по промежуткам
Продолжительность промежутка             : 42  мс. (1,00 видеокадр)
Время предзагрузки промежутка            : 504  мс.
-

Скриншот c названием фильма

-Скриншоты:
-

Еще

Яндекс.Метрика
Рейтинг@Mail.ru