[ Сегодня на трекере фрилич! Идет свободное скачивание без начисления Download ]

Полиция Гавайев / Hawaii Five-0 / Сезон: 5 / Серии: 1-23 из 25 (Стив Бойум, Брайан Спайсер, Брэд Тернер, Кристин Мур) [2014-2015, боевик, драма, криминал, WEB-DL 720p] MVO (DD 5.1 LostFilm) + Original + Subs (Eng)

 

Создавать темы 06-Май-2015 15:46

-Полиция Гавайев / Hawaii Five-0-- Год выпуска: 2014-2015
Страна: США
Жанр: боевик, драма, криминал
Продолжительность: ~ 00:42:00-Перевод: Профессиональный (многоголосый закадровый) LostFilm
Субтитры: Английские-Режиссёр: Стив Бойум, Брайан Спайсер, Брэд Тернер, Кристин Мур-В ролях: Алекс О`Лафлин, Скотт Каан, Дэниэл Дэ Ким, Грэйс Пак, Маси Ока, Тайлор Уайли, Тейлор Груббс, Лорен Джерман, Терри О’Куинн, Клер Вандер Бум, Брайан Янг, Дэннис Чун, Марк Дакаскос, Лариса Олейник, Уилл Юн Ли, Рейко Эйлсворт, Мишелль Борт, Уильям Сэдлер, Пол Эдни, Джин Смарт, Иэн Энтони Дэйл, Ричард Т. Джонс, Тэрин-Описание:
Детектив Стив МакГарретт, бывший морской офицер с массой наград, а теперь полицейский, возвращается в Оаху расследовать убийство отца. Он остается на острове, после того, как губернатор штата Гавайи убедил его возглавить новую команду. Команда будет действовать по его правилам, при поддержке губернатора, без бюрократических проволочек, и с полным иммунитетом, все это - чтобы поймать самую крупную «дичь» в городе. К МакГаррету присоединяется детектив Дэнни «Данно» Уильямс, недавно переведенный из Нью-Джерси полицейский, который предпочел бы небоскребы пляжам, но готов бороться с преступностью, чтобы его 8-летняя дочь чувствовала себя на островах в безопасности; и Чин Хо Келли, бывший детектив полиции Гонолулу, которого ошибочно обвинили в коррупции, и который когда-то был протеже отца МакГаррета. Двоюродная сестра Чина, Коно, прекрасная и бесстрашная уроженка островов, недавно выпустилась из академии, и рвется доказать, что она достойна места в элите департамента. МакГаррет клянется завершить дело отца, а члены нового спецотряда Five-O, может, и грызутся друг с другом, но настроены уничтожить преступность в пятидесятом штате.-Качество: WEB-DL 720p
Контейнер: MKV
Видео кодек: H.264
Аудио кодек: AC3
Видео: 1280x720 (16:9), 23.976 fps, ~4000 kbps, ~0.180 bit/pixel
Аудио Rus: 48 kHz, 6 ch, ~384 kbps |LostFilm|
Аудио Eng: 48 kHz, 6 ch, ~384 kbps |Original|
Субтитры: softsub (SRT)- by vlaluk
Озвучка: Студия "LostFilm"
Работа со звуком: vlaluk-Все раздачи сериала / Сэмпл / ImDB / Кинопоиск-

Список серий


01. Некуда бежать (A'ohe Kahi e Pe'e Ai)
02. Семьянин (Ka Makuakane)
03. Последняя волна (Kanalu Hope Loa)
04. Маляр (Ka No'eau)

MediaInfo

Общее
Уникальный идентификатор                 : 247295787539742524800748331151702672970 (0xBA0B6FAD0E1B9C41950EFEBC5D98C64A)
Полное имя                               : Hawaii.Five-0.S05.720p.WEB-DL.Rus.Eng.HDCLUB\Hawaii.Five-0.S05E01.720p.WEB-DL.Rus.Eng.HDCLUB.mkv
Формат                                   : Matroska
Версия формата                           : Version 4 / Version 2
Размер файла                             : 1,46 Гбайт
Продолжительность                        : 43 м.
Общий поток                              : 4769 Кбит/сек
Название фильма                          : Hawaii Five-0 [Season 5] (2014) - Release for HDCLUB by vlaluk
Дата кодирования                         : UTC 2014-09-29 10:49:50
Программа кодирования                    : mkvmerge v7.2.0 ('On Every Street') 32bit built on Sep 13 2014 15:42:11
Библиотека кодирования                   : libebml v1.3.0 + libmatroska v1.4.1
Видео
Идентификатор                            : 1
Формат                                   : AVC
Формат/Информация                        : Advanced Video Codec
Профиль формата                          : [email protected]
Параметр CABAC формата                   : Нет
Параметр ReFrames формата                : 2 кадра
Идентификатор кодека                     : V_MPEG4/ISO/AVC
Продолжительность                        : 43 м.
Битрейт                                  : 3906 Кбит/сек
Ширина                                   : 1280 пикселей
Высота                                   : 720 пикселей
Соотношение сторон                       : 16:9
Режим частоты кадров                     : Постоянный
Частота кадров                           : 23,976 кадра/сек
Цветовое пространство                    : YUV
Субдискретизация насыщенности            : 4:2:0
Битовая глубина                          : 8 бит
Тип развёртки                            : Прогрессивная
Бит/(Пиксели*Кадры)                      : 0.177
Размер потока                            : 1,20 Гбайт (82%)
Заголовок                                : Season 5, Episode 01: A'ohe Kahi e Pe'e Ai / Некуда бежать - Release for HDCLUB by vlaluk
Язык                                     : English
Default                                  : Да
Forced                                   : Нет
Основные цвета                           : BT.709
Характеристики трансфера                 : BT.709
Коэффициенты матрицы                     : BT.709
Аудио #1
Идентификатор                            : 2
Формат                                   : AC-3
Формат/Информация                        : Audio Coding 3
Расширение режима                        : CM (complete main)
Параметр Endianness формата              : Big
Идентификатор кодека                     : A_AC3
Продолжительность                        : 43 м.
Вид битрейта                             : Постоянный
Битрейт                                  : 384 Кбит/сек
Каналы                                   : 6 каналов
Расположение каналов                     : Front: L C R, Side: L R, LFE
Частота                                  : 48,0 КГц
Битовая глубина                          : 16 бит
Метод сжатия                             : С потерями
Размер потока                            : 120 Мбайт (8%)
Заголовок                                : DD 5.1 @ 384 kbps @ LostFilm
Язык                                     : Russian
Default                                  : Да
Forced                                   : Нет
Аудио #2
Идентификатор                            : 3
Формат                                   : AC-3
Формат/Информация                        : Audio Coding 3
Расширение режима                        : CM (complete main)
Параметр Endianness формата              : Big
Идентификатор кодека                     : A_AC3
Продолжительность                        : 43 м.
Вид битрейта                             : Постоянный
Битрейт                                  : 384 Кбит/сек
Каналы                                   : 6 каналов
Расположение каналов                     : Front: L C R, Side: L R, LFE
Частота                                  : 48,0 КГц
Битовая глубина                          : 16 бит
Метод сжатия                             : С потерями
Размер потока                            : 120 Мбайт (8%)
Заголовок                                : DD 5.1 @ 384 kbps
Язык                                     : English
Default                                  : Нет
Forced                                   : Нет
Текст
Идентификатор                            : 4
Формат                                   : UTF-8
Идентификатор кодека                     : S_TEXT/UTF8
Идентификатор кодека/Информация          : UTF-8 Plain Text
Заголовок                                : English @ SRT
Язык                                     : English
Default                                  : Нет
Forced                                   : Нет

Скриншоты:

Внимание

Внимание! Раздача ведётся путём добавления новых серий; при каждом добавлении создаётся новый торрент. Чтобы начать докачку новой серии, пользователям необходимо сделать следующее:
(1) остановить скачивание,
(2) удалить старый торрент у себя из клиента (старые серии удалять не надо),
(3) скачать новый торрент и запустить его у себя в клиенте вместо старого, при этом указать клиенту путь в старую папку куда и должно происходить скачивание новых серий.
Ваш клиент при этом должен произвести хеширование (проверку) старой папки (если не производит сам - помогите ему сделать это), и будет докачивать только те серии которых у вас ещё нет. Старые серии при этом не удаляются, а продолжают раздаваться!
Eсли вы уже удалили старые серии, то предотвратить повторную закачку старых серий можно, отжав галочку в соответствующих местах при запуске нового торрента. По возможности, желательно не удалять старые серии как можно дольше чтобы релизёр не столько продолжал раздавать старые серии, а смог сконцентрироваться на новых.
Яндекс.Метрика
Рейтинг@Mail.ru