Битва за Севастополь / Серии: 1-4 из 4 (Сергей Мокрицкий) [2015, Военный, ВОВ, драма, реальные, WEBRipAVC]

 

Создавать темы 05-Май-2015 10:44

-Битва за Севастополь-- Год выпуска: 2015
Производство: Россия, Украина, Новые люди
Жанр: Военный, ВОВ, драма, реальные события
Продолжительность: ~ 00:47:00 сери
Субтитры: нет
Режиссёр: Сергей Мокрицкий
В ролях: Юлия Пересильд, Евгений Цыганов, Олег Васильков, Никита Тарасов, Джоан Блэкэм, Полина Пахомова, Владимир Лилицкий, Анатолий Кот, Нателла Абелева-Таганова, Валерий Гришко, Сергей Барковский, Виталий Линецкий, Сергей Пускепалис, Геннадий Ченцов, Светлана Осадченко, Алла Сергийко, Станислав Боклан, Дмитрий Лаленков, Станислав Лесной, Сергей Сипливый
Описание: Одна из немногих кинолент посвященных женщинам на войне. История известной женщины-снайпера, принимавшей активное участие в обороне Севастополя. Уничтожив 309 фашистов, она покинула Севастополь, будучи серьезно раненой. После выздоровления оказалась в США с русской женской делегацией, ездила вместе с Элеонорой Рузвельт по Америке, убеждая открыть второй фронт.-- --Качество: WEBRipAVC
Формат: MKV
Видео кодек: H.264
Аудио кодек: AC3
Видео: MPEG-4 AVC, 720x304,25fps,1500 Кбит/сек,Bits/Pixel 0.274
Аудио: AC3, 2 ch, 192 Кбит/с

MI

Общее
Уникальный идентификатор : 226907696573916912072594810496036557781 (0xAAB4D52EBC112162AF4ABC722F0ED3D5)
Полное имя : F:\Битва за Севастополь\01 серия.mkv
Формат : Matroska
Версия формата : Version 2
Размер файла : 578 Мбайт
Продолжительность : 47 м.
Общий поток : 1693 Кбит/сек
Дата кодирования : UTC 2015-05-03 19:20:36
Программа кодирования : mkvmerge v6.1.0 ('Old Devil') built on Mar 4 2013 09:10:42
Библиотека кодирования : libebml v1.3.0 + libmatroska v1.4.0
Видео
Идентификатор : 1
Формат : AVC
Формат/Информация : Advanced Video Codec
Профиль формата : [email protected]
Параметр CABAC формата : Да
Параметр ReFrames формата : 9 кадров
Идентификатор кодека : V_MPEG4/ISO/AVC
Продолжительность : 47 м.
Битрейт : 1500 Кбит/сек
Ширина : 720 пикселей
Высота : 304 пикселя
Соотношение сторон : 2,35:1
Режим частоты кадров : Постоянный
Частота кадров : 25,000 кадров/сек
Цветовое пространство : YUV
Субдискретизация насыщенности : 4:2:0
Битовая глубина : 8 бит
Тип развёртки : Прогрессивная
Бит/(Пиксели*Кадры) : 0.274
Размер потока : 501 Мбайт (87%)
Библиотека кодирования : x264 core 130 r2273 b3065e6
Настройки программы : cabac=1 / ref=9 / deblock=1:-3:-3 / analyse=0x3:0x133 / me=umh / subme=9 / psy=1 / psy_rd=1.00:0.00 / mixed_ref=0 / me_range=16 / chroma_me=0 / trellis=2 / 8x8dct=1 / cqm=0 / deadzone=21,11 / fast_pskip=1 / chroma_qp_offset=-2 / threads=4 / lookahead_threads=4 / sliced_threads=0 / nr=0 / decimate=0 / interlaced=0 / bluray_compat=0 / constrained_intra=0 / bframes=9 / b_pyramid=2 / b_adapt=2 / b_bias=0 / direct=3 / weightb=1 / open_gop=0 / weightp=2 / keyint=250 / keyint_min=25 / scenecut=40 / intra_refresh=0 / rc_lookahead=40 / rc=2pass / mbtree=1 / bitrate=1500 / ratetol=1.0 / qcomp=0.60 / qpmin=0 / qpmax=69 / qpstep=4 / cplxblur=20.0 / qblur=0.5 / ip_ratio=1.40 / aq=1:1.20
Default : Да
Forced : Нет
Основные цвета : BT.709
Характеристики трансфера : BT.709
Коэффициенты матрицы : BT.709
colour_range : Limited
Аудио
Идентификатор : 2
Формат : AC-3
Формат/Информация : Audio Coding 3
Расширение режима : CM (complete main)
Параметр Endianness формата : Big
Идентификатор кодека : A_AC3
Продолжительность : 47 м.
Вид битрейта : Постоянный
Битрейт : 192 Кбит/сек
Каналы : 2 канала
Расположение каналов : Front: L R
Частота : 44,1 КГц
Битовая глубина : 16 бит
Метод сжатия : С потерями
Размер потока : 65,5 Мбайт (11%)
Default : Да
Forced : Нет

Скриншоты

Яндекс.Метрика
Рейтинг@Mail.ru