[ Сегодня на трекере фрилич! Идет свободное скачивание без начисления Download ]

Снайпер / American Sniper (2014) BDRemux [H.264/1080p]

 

Создавать темы 04-Май-2015 20:10

--Снайпер / American Sniper (2014) BDRemux [H.264/1080p]--
      • Производство: США / Warner Bros., Village Roadshow Pictures, Mad Chance Productions
      • Жанр: боевик, драма, военный, биография
      • Режиссер: Клинт Иствуд
      • Актеры: Брэдли Купер, Сиенна Миллер, Кайл Галлнер, Коул Конис, Бен Рид, Элиз Робертсон, Люк Саншайн, Трой Винсент, Брэндон Сальгадо, Кейр О’Доннелл
      • Описание:
          • Экранизация мемуаров морского пехотинца из Техаса Криса Кайла, который служил снайпером в Ираке и стал рекордсменом по числу убитых солдат противника, за что иракцы прозвали его дьяволом. Помимо описания военных действий, книга состоит из отрывков воспоминаний жены Криса, ставшей свидетельницей того, как росла привязанность мужа к его соратникам и войне.
      -
-
    • Дата мировой премьеры: 11 ноября 2014
    • Дата релиза на Blu-ray: 19 мая 2015 (USA, Warner Bros.)
    • Продолжительность: 02:12:37
    • Качество видео: BDRemux (BD50)
    • Перевод: Дублированный (Чистый звук)+TScr. Присутствует около 6 минут вставок звука с TS.
    • Субтитры: Вшитые отключаемые
    • Язык субтитров: Английский
    • Видеокодек: AVC/MPEG-4
    • Битрейт видео: ~24 940 kbps
    • Размер кадра: 1 920x1080
        • Аудио #1: Русский - AC3 / 2.0 / 48.0 KHz / 256 Kbps
        • Аудио #2: Английский - DTS MA TrueHD / 7.1 / 48 kHz / 3901 kbps / 24-bit (AC3 Embedded: 5.1-EX / 48 kHz / 640 kbps / DN -4dB)
        • Аудио #3: Английский - AC3 / 5.1 / 48.0 KHz / 640 Kbps
-

MediaInfo

        Код:
        General
        Unique ID : 251467201329364293212127582657230432119 (0xBD2ED2412F6B175EA25D78FFF3A86777)
        Complete name : F:\movie\AS\American.Sniper.2014.1080p.BluRay.AVC.RU.AC3.TrueHD.7.1.mkv
        Format : Matroska
        Format version : Version 4 / Version 2
        File size : 27.6 GiB
        Duration : 2h 12mn
        Overall bit rate mode : Variable
        Overall bit rate : 29.8 Mbps
        Movie name : American Sniper (2014)
        Encoded date : UTC 2015-05-04 07:03:47
        Writing application : mkvmerge v7.8.0 ('River Man') 32bit built on Mar 27 2015 16:18:02
        Writing library : libebml v1.3.1 + libmatroska v1.4.2
        Attachements : American Sniper.jpg
        _STATISTICS_WRITING_APP : mkvmerge v7.8.0 ('River Man') 32bit built on Mar 27 2015 16:18:02
        _STATISTICS_WRITING_DATE_UT : 2015-05-04 07:03:47
        _STATISTICS_TAGS : BPS DURATION NUMBER_OF_FRAMES NUMBER_OF_BYTES
        DURATION : 02:02:45.609000000
        NUMBER_OF_FRAMES : 1429
        NUMBER_OF_BYTES : 58327
        Video
        ID : 1
        Format : AVC
        Format/Info : Advanced Video Codec
        Format profile : [email protected]
        Format settings, CABAC : Yes
        Format settings, ReFrames : 2 frames
        Codec ID : V_MPEG4/ISO/AVC
        Duration : 2h 12mn
        Bit rate mode : Variable
        Width : 1 920 pixels
        Height : 1 080 pixels
        Display aspect ratio : 16:9
        Frame rate mode : Constant
        Frame rate : 23.976 fps
        Color space : YUV
        Chroma subsampling : 4:2:0
        Bit depth : 8 bits
        Scan type : Progressive
        Default : Yes
        Forced : No
        Audio #1
        ID : 2
        Format : AC-3
        Format/Info : Audio Coding 3
        Mode extension : CM (complete main)
        Format settings, Endianness : Big
        Codec ID : A_AC3
        Duration : 2h 12mn
        Bit rate mode : Constant
        Bit rate : 256 Kbps
        Channel(s) : 2 channels
        Channel positions : Front: L R
        Sampling rate : 48.0 KHz
        Bit depth : 16 bits
        Compression mode : Lossy
        Stream size : 243 MiB (1%)
        Title : Dub (Line)
        Language : Russian
        Default : Yes
        Forced : No
        Audio #2
        ID : 3
        Format : TrueHD
        Codec ID : A_TRUEHD
        Duration : 2h 12mn
        Bit rate mode : Variable
        Maximum bit rate : 7 407 Kbps
        Channel(s) : 8 channels
        Channel positions : Front: L C R, Side: L R, Back: L R, LFE
        Sampling rate : 48.0 KHz
        Compression mode : Lossless
        Language : English
        Default : No
        Forced : No
        Audio #3
        ID : 4
        Format : AC-3
        Format/Info : Audio Coding 3
        Mode extension : CM (complete main)
        Format settings, Endianness : Big
        Codec ID : A_AC3
        Duration : 2h 12mn
        Bit rate mode : Constant
        Bit rate : 640 Kbps
        Channel(s) : 6 channels
        Channel positions : Front: L C R, Side: L R, LFE
        Sampling rate : 48.0 KHz
        Bit depth : 16 bits
        Compression mode : Lossy
        Stream size : 607 MiB (2%)
        Language : English
        Default : No
        Forced : No
        Text
        ID : 5
        Format : UTF-8
        Codec ID : S_TEXT/UTF8
        Codec ID/Info : UTF-8 Plain Text
        Default : Yes
        Forced : No
        Menu
        00:00:00.000 : en:00:00:00.000
        00:11:03.145 : en:00:11:03.145
        00:22:06.291 : en:00:22:06.291
        00:33:09.437 : en:00:33:09.437
        00:44:12.582 : en:00:44:12.582
        00:55:15.728 : en:00:55:15.728
        01:06:18.874 : en:01:06:18.874
        01:17:22.020 : en:01:17:22.020
        01:28:25.165 : en:01:28:25.165
        01:39:28.311 : en:01:39:28.311
        01:50:31.457 : en:01:50:31.457
        02:01:34.603 : en:02:01:34.603
Скриншоты:
Яндекс.Метрика
Рейтинг@Mail.ru