(New Age, Instrumental, Spanish Guitar, Flamenco) [CD] Armik - Romantic Spanish Guitar - Vol. 1,2 (2014 - 2015), FLAC (image+.cue), lossless

 

Создавать темы 04-Май-2015 14:33

-Armik - Romantic Spanish Guitar- Жанр: New Age, Instrumental, Spanish Guitar, Flamenco
Носитель: CD
Страна-производитель диска: USA
Годы издания: 2014 - 2015
Лейбл: Bolero Records
Номер по каталогу: BOL7166, BOL7172
Аудиокодек: FLAC (*.flac)
Тип рипа: image+.cue
Битрейт аудио: lossless
Продолжительность: 00:51:22+00:50:29
Источник: israbox
Наличие сканов в содержимом раздачи: да-

Volume 1 (2014)

Продолжительность: 00:51:22
Треклист:
01. Dancing In The Clouds (4:19)
02. Guitarra Poeta (4:21)
03. Romance De La Luna (4:39)
04. Lagrimas (4:49)
05. Hearts Desire (4:41)
06. Roses In The Wind (4:35)
07. Gypsy Waltz (4:33)
08. Sentimientos De Amor (4:42)
09. When I First Saw You (4:33)
10. Moonlight Stroll (4:36)
11. Poeta (5:40)

Лог создания рипа

Exact Audio Copy V1.0 beta 3 from 29. August 2011
EAC extraction logfile from 28. April 2015, 22:59
Armik / Romantic Spanish Guitar - Vol 1
Used drive  : PIONEER BD-RW   BDR-TD03   Adapter: 0  ID: 1
Read mode               : Secure
Utilize accurate stream : Yes
Defeat audio cache      : Yes
Make use of C2 pointers : No
Read offset correction                      : 667
Overread into Lead-In and Lead-Out          : No
Fill up missing offset samples with silence : Yes
Delete leading and trailing silent blocks   : No
Null samples used in CRC calculations       : Yes
Used interface                              : Native Win32 interface for Win NT & 2000
Used output format              : User Defined Encoder
Selected bitrate                : 768 kBit/s
Quality                         : High
Add ID3 tag                     : No
Command line compressor         : C:\Program Files (x86)\Exact Audio Copy\FLAC\FLAC.EXE
Additional command line options : -6 -V -T "ARTIST=%artist%" -T "TITLE=%title%" -T "ALBUM=%albumtitle%" -T "DATE=%year%" -T "TRACKNUMBER=%tracknr%" -T "GENRE=%genre%" -T "COMMENT=%comment%" -T "BAND=%albuminterpret%" -T "ALBUMARTIST=%albuminterpret%" -T "COMPOSER=%composer%" %haslyrics%--tag-from-file=LYRICS="%lyricsfile%"%haslyrics% -T "DISCNUMBER=%cdnumber%" -T "TOTALDISCS=%totalcds%" -T "TOTALTRACKS=%numtracks%" %hascover%--picture="%coverfile%"%hascover% %source% -o %dest%
TOC of the extracted CD
     Track |   Start  |  Length  | Start sector | End sector
    ---------------------------------------------------------
        1  |  0:00.00 |  4:19.00 |         0    |    19424
        2  |  4:19.00 |  4:21.62 |     19425    |    39061
        3  |  8:40.62 |  4:39.00 |     39062    |    59986
        4  | 13:19.62 |  4:49.00 |     59987    |    81661
        5  | 18:08.62 |  4:41.56 |     81662    |   102792
        6  | 22:50.43 |  4:35.37 |    102793    |   123454
        7  | 27:26.05 |  4:33.37 |    123455    |   143966
        8  | 31:59.42 |  4:42.37 |    143967    |   165153
        9  | 36:42.04 |  4:33.37 |    165154    |   185665
       10  | 41:15.41 |  4:36.00 |    185666    |   206365
       11  | 45:51.41 |  5:40.00 |    206366    |   231865
Range status and errors
Selected range
     Filename C:\Users\Deris\Desktop\4rmk1\Armik - Romantic Spanish Guitar - Vol 1.wav
     Peak level 100.0 %
     Extraction speed 4.3 X
     Range quality 99.9 %
     Test CRC 75945EEF
     Copy CRC 75945EEF
     Copy OK
No errors occurred
AccurateRip summary
Track  1  accurately ripped (confidence 2)  [CD7A5CEB]  (AR v2)
Track  2  accurately ripped (confidence 2)  [BC8497F6]  (AR v2)
Track  3  accurately ripped (confidence 2)  [402C76C6]  (AR v2)
Track  4  accurately ripped (confidence 2)  [02C8256C]  (AR v2)
Track  5  accurately ripped (confidence 2)  [6B4A2A56]  (AR v2)
Track  6  accurately ripped (confidence 2)  [1E64AC5E]  (AR v2)
Track  7  accurately ripped (confidence 2)  [5785331F]  (AR v2)
Track  8  accurately ripped (confidence 2)  [26AB935F]  (AR v2)
Track  9  accurately ripped (confidence 2)  [FDEF34B4]  (AR v2)
Track 10  accurately ripped (confidence 2)  [CC7BCCBA]  (AR v2)
Track 11  accurately ripped (confidence 2)  [4601BFB8]  (AR v2)
All tracks accurately ripped
End of status report
---- CUETools DB Plugin V2.1.3
[CTDB TOCID: 9r.o5qoEvt0nQNkFD4NQrWuKdIE-] disk not present in database, Submit result: 9r.o5qoEvt0nQNkFD4NQrWuKdIE- has been uploaded
==== Log checksum BA7E549DA66AD64AECCF69E382F5C5DBE63A4FD3DAA95703D80C8EF976BAB50A ====

Volume 2 (2015)

Продолжительность: 00:50:29
Треклист:
01. Winds of Passion (4:35)
02. Breathless (4:55)
03. Guitanova (4:39)
04. Isla Mujeres (4:39)
05. Runaway Lovers (4:52)
06. Escape to Paradise (4:33)
07. Bella Melodia (5:05)
08. My Love For You (4:42)
09. Playa Del Carmen (4:46)
10. Sunsets In Cruz Bay (4:32)
11. Solo Guitarra (3:06)

Лог создания рипа

Exact Audio Copy V1.0 beta 3 from 29. August 2011
EAC extraction logfile from 30. April 2015, 12:41
Armik / Romantic Spanish Guitar Vol.2
Used drive  : PIONEER BD-RW   BDR-TD03   Adapter: 0  ID: 1
Read mode               : Secure
Utilize accurate stream : Yes
Defeat audio cache      : Yes
Make use of C2 pointers : No
Read offset correction                      : 667
Overread into Lead-In and Lead-Out          : No
Fill up missing offset samples with silence : Yes
Delete leading and trailing silent blocks   : No
Null samples used in CRC calculations       : Yes
Used interface                              : Native Win32 interface for Win NT & 2000
Used output format              : User Defined Encoder
Selected bitrate                : 768 kBit/s
Quality                         : High
Add ID3 tag                     : No
Command line compressor         : C:\Program Files (x86)\Exact Audio Copy\FLAC\FLAC.EXE
Additional command line options : -6 -V -T "ARTIST=%artist%" -T "TITLE=%title%" -T "ALBUM=%albumtitle%" -T "DATE=%year%" -T "TRACKNUMBER=%tracknr%" -T "GENRE=%genre%" -T "COMMENT=%comment%" -T "BAND=%albuminterpret%" -T "ALBUMARTIST=%albuminterpret%" -T "COMPOSER=%composer%" %haslyrics%--tag-from-file=LYRICS="%lyricsfile%"%haslyrics% -T "DISCNUMBER=%cdnumber%" -T "TOTALDISCS=%totalcds%" -T "TOTALTRACKS=%numtracks%" %hascover%--picture="%coverfile%"%hascover% %source% -o %dest%
TOC of the extracted CD
     Track |   Start  |  Length  | Start sector | End sector
    ---------------------------------------------------------
        1  |  0:00.00 |  4:35.74 |         0    |    20698
        2  |  4:35.74 |  4:55.73 |     20699    |    42896
        3  |  9:31.72 |  4:39.69 |     42897    |    63890
        4  | 14:11.66 |  4:39.04 |     63891    |    84819
        5  | 18:50.70 |  4:52.07 |     84820    |   106726
        6  | 23:43.02 |  4:33.28 |    106727    |   127229
        7  | 28:16.30 |  5:05.14 |    127230    |   150118
        8  | 33:21.44 |  4:42.29 |    150119    |   171297
        9  | 38:03.73 |  4:46.10 |    171298    |   192757
       10  | 42:50.08 |  4:32.62 |    192758    |   213219
       11  | 47:22.70 |  3:06.37 |    213220    |   227206
Range status and errors
Selected range
     Filename C:\Users\Deris\Desktop\5rmk1\Armik - Romantic Spanish Guitar Vol.2.wav
     Peak level 100.0 %
     Extraction speed 4.7 X
     Range quality 100.0 %
     Test CRC B6FAEA35
     Copy CRC B6FAEA35
     Copy OK
No errors occurred
AccurateRip summary
Track  1  not present in database
Track  2  not present in database
Track  3  not present in database
Track  4  not present in database
Track  5  not present in database
Track  6  not present in database
Track  7  not present in database
Track  8  not present in database
Track  9  not present in database
Track 10  not present in database
Track 11  not present in database
None of the tracks are present in the AccurateRip database
End of status report
---- CUETools DB Plugin V2.1.3
[CTDB TOCID: uwmjEmh_WrasuftOCPjOtUqXsjw-] disk not present in database, Submit result: uwmjEmh_WrasuftOCPjOtUqXsjw- has been uploaded
==== Log checksum B849DECEEFABB91B9CD6F87D0765500DF7F444D8C43628295DA1174ED240EC44 ====
Яндекс.Метрика
Рейтинг@Mail.ru