[ Сегодня на трекере фрилич! Идет свободное скачивание без начисления Download ]

Истребители [01-12 из 12] (2013) DVDRip от New-Team | лицензия

 

Создавать темы 04-Май-2015 13:59

-Истребители [01-12 из 12]- Год выпуска: 2013
Производство: Россия
Жанр: драма, военный
Продолжительность: 00:43:00 / серия
Режиссёр: Алексей Мурадов
В ролях: Екатерина Вилкова, Дмитрий Дюжев, Николай Козак, Любовь Руденко, Олег Фомин, Юрий Яковлев-Суханов, Мария Андреева, Виталий Махов, Денис Варенов, Антон Соколов, Дмитрий Арбенин, Александр Корчагин, Екатерина Рябова, Владимир Большов, Иван Гар, Игорь Арташонов, Дарья Кривцова, Андрей Мясников, Азамат Нигманов, Антон Соколов (II), Сергей Шеховцов, Алексей Каничев, Алексей Потапкин, Денис Константинов, Петр Никищихин, Леонид Орлов, Алексей Секирин, Денис Березин, Петр Рыков, Александр Ананьев, Артём Федотов, Юлия Галина, Александр Барановский
Описание: СССР. В разгаре Великая Отечественная Война. Молодые летчики Леонид и Борис по прибытии в летную школу узнают, что они зачислены в авиационный полк и в ближайшее время их отправят на фронт.
Первое же боевое задание герои проваливают - Леонид, вместо того чтобы прикрывать штурмовиков, вырывается из строя и идет в атаку на немецкие «мессеры», в результате чего оборонительный строй нарушается, штурмовики остаются без защиты и, попав под огонь немецких истребителей, погибают. Задание провалено. Командуют отступление. Леонида и Бориса отправляют в дивизию, где их ждет трибунал и расстрел. Их уже выводят под конвоем, когда на военный аэродром прилетает командир штурмового отряда и лично ходатайствует о том, чтобы Борис и Леонид вернулись в строй. Теперь нашим героям придется выполнять роль штурмовиков, быть ответственными и бесстрашными и следовать приказам любой сложности без колебаний и страха за свои жизни...- -Качество: DVDRip (2хDVD9 R5)
Формат: AVI
Видео: 720x400 (16:9), 25.000 fps, XViD ~ 2000 kbps avg, 0.278 bit/pixel
Аудио: 48 kHz, АС3 2 ch, 192 kbps, русский
Релиз от:

MediaInfo

Общее
Полное имя : Istrebiteli.2013.O.DVDRip_[Youtracker]_by_avproh.avi
Формат : AVI
Формат/Информация : Audio Video Interleave
Размер файла : 677 Мбайт
Продолжительность : 42 м.
Общий поток : 2202 Кбит/сек
Программа кодирования : VirtualDubMod 1.5.10.3 | www.virtualdub-fr.org || (build 2550/release)
Библиотека кодирования : VirtualDubMod build 2550/release
Видео
Идентификатор : 0
Формат : MPEG-4 Visual
Профиль формата : Advanced [email protected]
Параметр BVOP формата : 1
Параметр QPel формата : Нет
Параметр GMC формата : Без точки перехода
Параметр матрицы формата : Выборочная
Идентификатор кодека : XVID
Идентификатор кодека/Подсказка : XviD
Продолжительность : 42 м.
Битрейт : 2001 Кбит/сек
Ширина : 720 пикселей
Высота : 400 пикселей
Соотношение сторон : 16:9
Частота кадров : 25,000 кадров/сек
Цветовое пространство : YUV
Субдискретизация насыщенности : 4:2:0
Битовая глубина : 8 бит
Тип развёртки : Прогрессивная
Метод сжатия : С потерями
Бит/(Пиксели*Кадры) : 0.278
Размер потока : 615 Мбайт (91%)
Библиотека кодирования : XviD 65
Аудио
Идентификатор : 1
Формат : AC-3
Формат/Информация : Audio Coding 3
Расширение режима : CM (complete main)
Параметр Endianness формата : Big
Идентификатор кодека : 2000
Продолжительность : 42 м.
Вид битрейта : Постоянный
Битрейт : 192 Кбит/сек
Каналы : 2 канала
Расположение каналов : Front: L R
Частота : 48,0 КГц
Битовая глубина : 16 бит
Метод сжатия : С потерями
Размер потока : 59,0 Мбайт (9%)
Выравнивание : Разделение по промежуткам
Продолжительность промежутка : 40 мс. (1,00 видеокадр)
Время предзагрузки промежутка : 500 мс.

Скриншоты:

Яндекс.Метрика
Рейтинг@Mail.ru