Тринадцатая сказка / The Thirteenth Tale (Джеймс Кент / James Kent) [2013, Великобритания, драма, HDTVRip] VO (qwerty)+ Original Eng

 

Создавать темы 04-Май-2015 08:47

Тринадцатая сказка / The Thirteenth Tale Страна: Великобритания
Жанр: драма
Год выпуска: 2013
Продолжительность: 01:29:03
Перевод: Одноголосый закадровый - [qwerty]
Cубтитры: нет
Режиссер: Джеймс Кент / James Kent
В ролях:
Джанет Эмсден, Эмили Бичем, Антония Кларк, Оливия Колман, Жаклин Дэвис, Том Гудман-Хилл, Элизабет Хопли, Майкл Джибсон и др.
Описание:
Маргарет получает от знаменитой писательницы Виды Винтер предложение стать её биографом. И перед Маргарет разворачивается история сестер-близнецов, которая перекликается с её личной историей
Сэмпл: http://sendfile.su/984610
Качество видео: HDTVRip
Формат видео: AVI
Видео: DivX, 2034 kb/s, 720x400, 25,000 кадров/сек
Аудио: Russian: AC3, 192 kb/s (2 ch), 48,0 КГц
Аудио: English: AC3, 192 kb/s (2 ch), 48,0 КГц

MediaInfo

I:\Тринадцатая сказка\Trinadcataya.skazka.2013.HDTVRip.avi
General
Complete name : I:\Тринадцатая сказка\Trinadcataya.skazka.2013.HDTVRip.avi
Format : AVI
Format/Info : Audio Video Interleave
File size : 1.37 GiB
Duration : 1h 29mn
Overall bit rate : 2 203 Kbps
Writing application : VirtualDubMod 1.5.10.2 (build 2540/release)
Writing library : VirtualDubMod build 2540/release
Video #0
ID : 0
Format : MPEG-4 Visual
Format profile : Advanced [email protected]
Format settings, BVOP : 2
Format settings, QPel : No
Format settings, GMC : No warppoints
Format settings, Matrix : Default (MPEG)
Codec ID : XVID
Codec ID/Hint : XviD
Duration : 1h 29mn
Bit rate : 1 805 Kbps
Width : 720 pixels
Height : 400 pixels
Display aspect ratio : 16:9
Frame rate : 25.000 fps
Color space : YUV
Chroma subsampling : 4:2:0
Bit depth : 8 bits
Scan type : Progressive
Compression mode : Lossy
Bits/(Pixel*Frame) : 0.251
Stream size : 1.12 GiB (82%)
Writing library : XviD 1.2.1 (UTC 2008-12-04)
Audio #1
ID : 1
Format : AC-3
Format/Info : Audio Coding 3
Mode extension : CM (complete main)
Format settings, Endianness : Big
Codec ID : 2000
Duration : 1h 29mn
Bit rate mode : Constant
Bit rate : 192 Kbps
Channel count : 2 channels
Channel positions : Front: L R
Sampling rate : 48.0 KHz
Bit depth : 16 bits
Compression mode : Lossy
Stream size : 122 MiB (9%)
Alignment : Split accross interleaves
Interleave, duration : 40 ms (1.00 video frame)
Interleave, preload duration : 500 ms
Audio #2
ID : 2
Format : AC-3
Format/Info : Audio Coding 3
Mode extension : CM (complete main)
Format settings, Endianness : Big
Codec ID : 2000
Duration : 1h 29mn
Bit rate mode : Constant
Bit rate : 192 Kbps
Channel count : 2 channels
Channel positions : Front: L R
Sampling rate : 48.0 KHz
Bit depth : 16 bits
Compression mode : Lossy
Stream size : 122 MiB (9%)
Alignment : Split accross interleaves
Interleave, duration : 40 ms (1.00 video frame)
Interleave, preload duration : 500 ms

Скриншоты:

Яндекс.Метрика
Рейтинг@Mail.ru