[ Сегодня на трекере фрилич! Идет свободное скачивание без начисления Download ]

Салем / Salem / Сезон: 2 / Серии: 1-4 из 13 (Ричард Шепард / Richard Shepard) [2015, Фантастика, триллер, драма, WEB-DL 720p] 4xMVO (LostFilm, NewStudio, AlexFilm, BaibaKo) + Original + Eng Subs

 

Создавать темы 03-Май-2015 22:22

--Салем / Salem--- Год выпуска: 2015
Страна: США
Жанр: Фантастика, триллер, драма
Продолжительность: ~00:43:00-Перевод: Профессиональный (многоголосый закадровый) | LostFilm
Перевод: Профессиональный (многоголосый закадровый) | NewStudio
Перевод: Профессиональный (многоголосый закадровый) | AlexFilm
Перевод: Профессиональный (многоголосый закадровый) | BaibaKo
Субтитры: English-Режиссёр: Ричард Шепард / Richard Shepard-В ролях: Шэйн Уэст, Джанет Монтгомери, Эжур Дэун, Моргана Шоу, Дайан Салинджер, Сет Гейбл, Ксандер Беркли, Эшли Мадекве, Элиз Эберли, Джон Артур-Описание: Сюжет сериала закручен вокруг отважного ветерана войны, который возвращается с полей сражений в родной Салем. Добравшись до родных мест, мужчина обнаруживает, что все местное население охвачено безумием охоты на «ведьм».-Ссылка на предыдущие и альтернативные раздачи: http://rutracker.org/forum/tracker.php?f=189,2366&nm=Salem
Сэмпл: http://sendfile.su/1110116
-Качество: WEB-DL 720p
Контейнер: MKV
Видео: 1280x720, 23.976 fps, MPEG-4 AVC, ~4000 kbps avg, 0.172 bit/pixel
Аудио: 48 kHz, AC3, 3/2 (L,C,R,l,r) + LFE ch, ~384.00 kbps avg |LostFilm|
Аудио: 48 kHz, AC3, 3/2 (L,C,R,l,r) + LFE ch, ~384.00 kbps avg |NewStudio|
Аудио: 48 kHz, AC3, 3/2 (L,C,R,l,r) + LFE ch, ~384.00 kbps avg |AlexFilm|
Аудио: 48 kHz, AC3, 3/2 (L,C,R,l,r) + LFE ch, ~384.00 kbps avg |BaibaKo|
Аудио: 48 kHz, AC3, 3/2 (L,C,R,l,r) + LFE ch, ~384.00 kbps avg-

Список серий

01. К убийству призывая / Cry Havoc02. Кровавый поцелуй / Blood Kiss
-

MediaInfo

ОбщееУникальный идентификатор : 253483673874459336906602916677161717326 (0xBEB32E06E6D32C18B7E85288984A0E4E)Полное имя : G:\Movies\Salem (Season 2) WEB-DL 720p\Salem.S02E01.720p.WEB-DL.4xRus.Eng.Sub-HDCLUB.mkvФормат : MatroskaВерсия формата : Version 4 / Version 2Размер файла : 2,05 ГбайтПродолжительность : 50 м.Общий поток : 5831 Кбит/секДата кодирования : UTC 2015-04-08 17:49:06Программа кодирования : mkvmerge v6.3.0 ('You can't stop me!') built on Jun 27 2013 22:06:07Библиотека кодирования : libebml v1.3.0 + libmatroska v1.4.0
ВидеоИдентификатор : 1Формат : AVCФормат/Информация : Advanced Video CodecПрофиль формата : [email protected] CABAC формата : НетПараметр ReFrames формата : 2 кадраИдентификатор кодека : V_MPEG4/ISO/AVCПродолжительность : 50 м.Битрейт : 3794 Кбит/секШирина : 1280 пикселейВысота : 720 пикселейСоотношение сторон : 16:9Режим частоты кадров : ПостоянныйЧастота кадров : 23,976 кадра/секЦветовое пространство : YUVСубдискретизация насыщенности : 4:2:0Битовая глубина : 8 битТип развёртки : ПрогрессивнаяБит/(Пиксели*Кадры) : 0.172Размер потока : 1,33 Гбайт (65%)Язык : EnglishDefault : ДаForced : НетОсновные цвета : BT.709Характеристики трансфера : BT.709Коэффициенты матрицы : BT.709colour_range : Limited
Аудио #1Идентификатор : 2Формат : AC-3Формат/Информация : Audio Coding 3Расширение режима : CM (complete main)Параметр Endianness формата : BigИдентификатор кодека : A_AC3Продолжительность : 50 м.Вид битрейта : ПостоянныйБитрейт : 384 Кбит/секКаналы : 6 каналовРасположение каналов : Front: L C R, Side: L R, LFEЧастота : 48,0 КГцБитовая глубина : 16 битМетод сжатия : С потерямиРазмер потока : 138 Мбайт (7%)Заголовок : LostFilmЯзык : RussianDefault : ДаForced : Нет
Аудио #2Идентификатор : 3Формат : AC-3Формат/Информация : Audio Coding 3Расширение режима : CM (complete main)Параметр Endianness формата : BigИдентификатор кодека : A_AC3Продолжительность : 50 м.Вид битрейта : ПостоянныйБитрейт : 384 Кбит/секКаналы : 6 каналовРасположение каналов : Front: L C R, Side: L R, LFEЧастота : 48,0 КГцБитовая глубина : 16 битМетод сжатия : С потерямиРазмер потока : 138 Мбайт (7%)Заголовок : NewStudioЯзык : RussianDefault : НетForced : Нет
Аудио #3Идентификатор : 4Формат : AC-3Формат/Информация : Audio Coding 3Расширение режима : CM (complete main)Параметр Endianness формата : BigИдентификатор кодека : A_AC3Продолжительность : 50 м.Вид битрейта : ПостоянныйБитрейт : 384 Кбит/секКаналы : 6 каналовРасположение каналов : Front: L C R, Side: L R, LFEЧастота : 48,0 КГцБитовая глубина : 16 битМетод сжатия : С потерямиРазмер потока : 138 Мбайт (7%)Заголовок : AlexFilmЯзык : RussianDefault : НетForced : Нет
Аудио #4Идентификатор : 5Формат : AC-3Формат/Информация : Audio Coding 3Расширение режима : CM (complete main)Параметр Endianness формата : BigИдентификатор кодека : A_AC3Продолжительность : 50 м.Вид битрейта : ПостоянныйБитрейт : 384 Кбит/секКаналы : 6 каналовРасположение каналов : Front: L C R, Side: L R, LFEЧастота : 48,0 КГцБитовая глубина : 16 битМетод сжатия : С потерямиРазмер потока : 138 Мбайт (7%)Заголовок : BaibaKoЯзык : RussianDefault : НетForced : Нет
Аудио #5Идентификатор : 6Формат : AC-3Формат/Информация : Audio Coding 3Расширение режима : CM (complete main)Параметр Endianness формата : BigИдентификатор кодека : A_AC3Продолжительность : 50 м.Вид битрейта : ПостоянныйБитрейт : 384 Кбит/секКаналы : 6 каналовРасположение каналов : Front: L C R, Side: L R, LFEЧастота : 48,0 КГцБитовая глубина : 16 битМетод сжатия : С потерямиРазмер потока : 138 Мбайт (7%)Язык : EnglishDefault : НетForced : Нет
ТекстИдентификатор : 7Формат : UTF-8Идентификатор кодека : S_TEXT/UTF8Идентификатор кодека/Информация : UTF-8 Plain TextЯзык : EnglishDefault : НетForced : Нет
-

Скриншоты

-

Внимание! Раздача ведётся путём добавления новых серий!

Внимание! Раздача ведётся путём добавления новых серий; при каждом добавлении создётся новый торрент. Чтобы начать докачку новой серии, пользователям необходимо сделать следующее: (1) остановить скачивание, (2) удалить старый торрент у себя из клиента (старые серии удалять не надо), (3) скачать новый торрент и запустить его у себя в клиенте вместо старого, при этом указать клиенту путь в старую папку куда и должно происходить скачивание новых серий.
Ваш клиент при этом должен произвести хеширование (проверку) старой папки (если не производит сам - помогите ему сделать это), и будет докачивать только те серии которых у вас ещё нет. Старые серии при этом не удаляются, а продолжают раздаваться!
Eсли вы уже удалили старые серии, то предотвратить повторную закачку старых серий можно, отжав галочку в соответсвующих местах при запуске нового торрента.-
Яндекс.Метрика
Рейтинг@Mail.ru