Дед 005 / Серии: 1-6 из 6 (Аркадий Григорян, Мгер Мкртчян) [2014, Комедия, HDTVRip]

 

Создавать темы 03-Май-2015 18:31

-Дед 005- Год выпуска: 2014
Производство: Россия, СинеПро
Жанр: Комедия
Продолжительность: ~0:45:00 серия
Субтитры: нет
Режиссёр: Аркадий Григорян, Мгер Мкртчян
В ролях: Сергей Шакуров, Андрис Булис, Вахтанг Кикабидзе, Анна Попова, Грант Тохатян, Олеся Судзиловская, Константин Юшкевич, Дмитрий Марьянов, Сергей Степанченко, Татьяна Лютаева, Наталья Дворецкая, Тамара Свешникова, Левон Казарян
Описание: Гений разведки Олег Степанович, полковник в отставке, тоскует без работы, коротая дни в парке и у телевизора… А в это время его внук Андрей, начинающий дипломат, попадает в затруднительную романтическую ситуацию. Дед летит к внуку в Ереван, где встречает своего старого товарища, кардиолога Ираклия, который тут же включается в «сердечное» дело. Операция по решению любовных проблем внука получает название «Дед 005», причём методы русского чекиста и грузинского врача иногда шокируют окружающих. Но только настоящая любовь способна взять верх над мастерством виртуозов контрразведки.

Качество: HDTVRip
Формат: AVI
Видео кодек: XviD
Аудио кодек: AC3
Видео: 720x400 (1.80:1), 25 fps, XviD build 73 ~1361 kbps avg, 0.19 bit/pixel
Аудио: 48 kHz, AC3 Dolby Digital, 3/2 (L,C,R,l,r) + LFE ch, ~448 kbps
Сторонней рекламы нет!

MediaInfo

ОбщееПолное имя : F:\Ded 005.HDTVRip.MediaClub\Ded 005.(01.seriya.iz.06).HDTVRip.MediaClub.aviФормат : AVIФормат/Информация : Audio Video InterleaveРазмер файла : 601 МбайтПродолжительность : 46 м.Общий поток : 1819 Кбит/секПрограмма кодирования : VirtualDubMod 1.5.10.3 | www.virtualdub-fr.org || (build 2550/release)Библиотека кодирования : VirtualDubMod build 2550/release
ВидеоИдентификатор : 0Формат : MPEG-4 VisualПрофиль формата : Advanced [email protected] BVOP формата : 1Параметр QPel формата : НетПараметр GMC формата : Без точки переходаПараметр матрицы формата : ВыборочнаяИдентификатор кодека : XVIDИдентификатор кодека/Подсказка : XviDПродолжительность : 46 м.Битрейт : 1361 Кбит/секШирина : 720 пикс.Высота : 400 пикс.Соотношение сторон : 16:9Частота кадров : 25,000 кадр/секЦветовое пространство : YUVПодвыборка цветности : 4:2:0Битовая глубина : 8 битТип развёртки : ПрогрессивнаяМетод сжатия : С потерямиБит/(Пиксели*Кадры) : 0.189Размер потока : 450 Мбайт (75%)Библиотека кодирования : XviD 73
АудиоИдентификатор : 1Формат : AC-3Формат/Информация : Audio Coding 3Расширение режима : CM (complete main)Идентификатор кодека : 2000Продолжительность : 46 м.Вид битрейта : ПостоянныйБитрейт : 448 Кбит/секКаналы : 6 каналовРасположение каналов : Front: L C R, Side: L R, LFEЧастота : 48,0 КГцБитовая глубина : 16 битМетод сжатия : С потерямиРазмер потока : 148 Мбайт (25%)Выравнивание : Разделение по промежуткамПродолжительность промежутка : 40 мс. (1,00 видеокадр)Время предзагрузки промежутка : 500 ms
ВНИМАНИЕ! ТОРРЕНТ ПЕРЕЗАЛИТ! ДОБАВЛЕНА 6-ая СЕРИИ!

Скриншоты

Яндекс.Метрика
Рейтинг@Mail.ru