[ Сегодня на трекере фрилич! Идет свободное скачивание без начисления Download ]

Заложница 3 / Taken 3 (2014) BDRip 720p | Extended Cut | 48fps

 

Создавать темы 03-Май-2015 14:55

Заложница 3 / Taken 3 (2014) BDRip 720p | Extended Cut | 48fps«Это конец»- Название: Заложница 3
Оригинальное название: Taken 3
Год выхода: 2014
Жанр: Боевик, триллер
Режиссер: Оливье Мегатон
Продюсер: Люк Бессон, Мишель Мандавилль
В ролях: Лиам Нисон, Мэгги Грэйс, Форест Уитакер, Сэм Спруэлл, Фамке Янссен, Дюгрей Скотт, Дон Харви, Дилан Бруно, Лиленд Орсер, Дэвид Уоршофски
Описание фильма:
Жизнь бывшего правительственного агента Брайана Миллса рушится, когда его обвиняют в убийстве, которого он не совершал. Преследуемый опытным инспектором полиции, Миллс пытается отследить настоящего убийцу…
Страна: Франция
Студия: EuropaCorp, Canal+ [fr]
Продолжительность: 01:55:18
Перевод: Дублированный (Лицензия)
Субтитры: Вшитые, отключаемые
Язык субтитров: Русский (Full), Английский (Full)
Дата мировой премьеры: 16 декабря 2014
Дата российской премьеры: 15 января 2015, «Двадцатый Век Фокс СНГ»
Дата выхода DVD релиза: 23 апреля 2015, «Двадцатый Век Фокс СНГ»
Дата выхода Blu-Ray релиза: 23 апреля 2015, «Двадцатый Век Фокс СНГ»
Файл
Формат: MKV
Кодек: MPEG-4 AVC/H.264
Качество: BDRip 720p
Видео: ~ 7312 Кбит/сек, 1280 x 544, 59.940 кадров/сек
Аудио: AC3 5.1, 48.0 KHz, 640 Кбит/сек - Русский

MediaInfo

Общее
Полное имя : D:\Торренты\Taken 3 48fps.mkv
Формат : Matroska
Версия формата : Version 2
Размер файла : 6,53 Гбайт
Продолжительность : 1 ч. 55 м.
Общий поток : 8113 Кбит/сек
Название фильма : Taken 3 (2014) [Extended Cut] Blu-ray EUR 1080p
Дата кодирования : UTC 2015-04-26 16:58:51
Программа кодирования : mkvmerge v6.9.1 ('Blue Panther') 64bit built on Apr 18 2014 18:23:38
Библиотека кодирования : libebml v1.3.0 + libmatroska v1.4.1
Видео
Идентификатор : 1
Формат : AVC
Формат/Информация : Advanced Video Codec
Профиль формата : [email protected]
Параметр CABAC формата : Да
Параметр ReFrames формата : 6 кадров
Идентификатор кодека : V_MPEG4/ISO/AVC
Продолжительность : 1 ч. 55 м.
Битрейт : 7312 Кбит/сек
Ширина : 1280 пикселей
Высота : 544 пикселя
Соотношение сторон : 2,35:1
Режим частоты кадров : Постоянный
Частота кадров : 47,952 кадров/сек
Цветовое пространство : YUV
Субдискретизация насыщенности : 4:2:0
Битовая глубина : 8 бит
Тип развёртки : Прогрессивная
Бит/(Пиксели*Кадры) : 0.219
Размер потока : 5,89 Гбайт (90%)
Заголовок : Release by mimok
Библиотека кодирования : x264 core 130 r2273 b3065e6
Настройки программы : cabac=1 / ref=6 / deblock=1:0:0 / analyse=0x3:0x133 / me=umh / subme=8 / psy=1 / psy_rd=1.00:0.15 / mixed_ref=1 / me_range=20 / chroma_me=1 / trellis=2 / 8x8dct=1 / cqm=0 / deadzone=21,11 / fast_pskip=0 / chroma_qp_offset=-3 / threads=6 / lookahead_threads=2 / sliced_threads=0 / nr=0 / decimate=0 / interlaced=0 / bluray_compat=0 / constrained_intra=0 / bframes=8 / b_pyramid=2 / b_adapt=2 / b_bias=0 / direct=1 / weightb=1 / open_gop=0 / weightp=2 / keyint=250 / keyint_min=25 / scenecut=40 / intra_refresh=0 / rc=crf / mbtree=0 / crf=18.0 / qcomp=0.63 / qpmin=10 / qpmax=51 / qpstep=4 / ip_ratio=1.40 / pb_ratio=1.30 / aq=1:1.20
Default : Да
Forced : Нет
Аудио
Идентификатор : 2
Формат : AC-3
Формат/Информация : Audio Coding 3
Расширение режима : CM (complete main)
Параметр Endianness формата : Big
Идентификатор кодека : A_AC3
Продолжительность : 1 ч. 55 м.
Вид битрейта : Постоянный
Битрейт : 640 Кбит/сек
Каналы : 6 каналов
Расположение каналов : Front: L C R, Side: L R, LFE
Частота : 48,0 КГц
Битовая глубина : 16 бит
Метод сжатия : С потерями
Размер потока : 528 Мбайт (8%)
Заголовок : Dub
Язык : Russian
Default : Да
Forced : Нет
Текст #1
Идентификатор : 3
Формат : UTF-8
Идентификатор кодека : S_TEXT/UTF8
Идентификатор кодека/Информация : UTF-8 Plain Text
Заголовок : Full
Язык : Russian
Default : Да
Forced : Нет
Текст #2
Идентификатор : 4
Формат : UTF-8
Идентификатор кодека : S_TEXT/UTF8
Идентификатор кодека/Информация : UTF-8 Plain Text
Заголовок : Full
Язык : English
Default : Нет
Forced : Нет

Скриншоты:

Яндекс.Метрика
Рейтинг@Mail.ru